Now Playing + What are you listening to?

Simon Preston & Trevor Pinnock, The English Concert - Purcell - Te Deum · Anthems (1983) Vinyl, Achiv, Germany

front-4K.jpg


DR Peak RMS Duration Track
--------------------------------------------------------------------------------
DR13 -0.26 dB -19.52 dB 14:09 A1 Te Deum Laudamus
DR12 -1.16 dB -19.82 dB 8:20 A2 Jubilate Deo
DR14 -0.86 dB -20.62 dB 15:21 B1 My Heart Is Inditing
DR14 -0.27 dB -19.63 dB 12:28 B2 O Sing Unto The Lord
--------------------------------------------------------------------------------

Number of tracks: 4
Official DR value: DR13

https://www.discogs.com/release/351...he-English-Concert-Trevor-Pinnock-Simon-Prest


4K video / AAC 192kbps. Audio from 24/192 FLAC 0 vinyl rip (24/96 to make the video).

Simon Preston & Trevor Pinnock, The English Concert - Purcell - Te Deum · Anthems (1983) Vinyl

 

Attachments

  • back.jpg
    back.jpg
    1 MB · Views: 23
  • labelA.jpg
    labelA.jpg
    335.8 KB · Views: 19
  • labelB.jpg
    labelB.jpg
    336.5 KB · Views: 20
Billie Holiday - Body And Soul (1957) Vinyl, mono, MFSL 1995, US

Front-4K.jpg


DR Peak RMS Duration Track
--------------------------------------------------------------------------------
DR12 -1.32 dB -16.21 dB 6:18 01-Body And Soul
DR12 -0.61 dB -14.20 dB 4:08 02-They Can't Take That Away From Me
DR13 -0.24 dB -15.63 dB 6:15 03-Darn That Dream
DR11 -0.05 dB -13.57 dB 3:22 04-Let's Call The Whole Thing Off
DR13 -0.06 dB -16.86 dB 3:58 05-Comes Love
DR14 -0.05 dB -16.20 dB 5:34 06-Gee, Baby, Ain't I Good To You
DR13 -2.62 dB -17.81 dB 6:45 07-Embraceable You
DR13 -4.16 dB -19.19 dB 3:47 08-Moonlight In Vermont
--------------------------------------------------------------------------------

Number of tracks: 8
Official DR value: DR13

https://www.discogs.com/release/3582348-Billie-Holiday-Body-And-Soul


4K video / AAC 192kbps. Audio from 24/96 FLAC 1995 vinyl rip.

 

Attachments

  • Label Side 2.jpg
    Label Side 2.jpg
    204.6 KB · Views: 22
  • Label Side 1.jpg
    Label Side 1.jpg
    205.5 KB · Views: 21
  • Gatefold-4K.jpg
    Gatefold-4K.jpg
    324.8 KB · Views: 23
  • Cover Rear.jpg
    Cover Rear.jpg
    626.9 KB · Views: 22
Stokowski, London Symphony Orchestra - Wagner - Orchestral Masterpieces of The Ring (1967) Vinyl, London, UK

front-4K.jpg


DR Peak RMS Duration Track
--------------------------------------------------------------------------------
DR10 -0.06 dB -11.79 dB 5:08 01-The Ride Of The Valkyries (from "Die Walküre")
DR12 -0.37 dB -18.78 dB 9:16 02-Forest Murmurs (from "Siegfried")
DR10 -0.14 dB -15.98 dB 7:47 03-Entrance Of The Gods Into Valhalla (from "Das Rheingold")
DR11 -0.70 dB -17.41 dB 12:00 04-Dawn And Siegfried's Rhine Journey (from "Götterdämmerung")
DR11 -0.06 dB -16.78 dB 11:58 05-Siegfried's Death And Funeral Music (from "Götterdämmerung")
--------------------------------------------------------------------------------

Number of tracks: 5
Official DR value: DR11

Decca pressing
https://www.discogs.com/release/141...l-Masterpieces-From-The-Ring-Of-The-Niebelung


4K video / AAC 192kbps. Audio from 24/96 FLAC vinyl rip, London pressing.

Stokowski, London SO - Wagner - Orchestral Masterpieces of The Ring (1967) Vinyl

 

Attachments

  • label-b.jpg
    label-b.jpg
    364.6 KB · Views: 26
  • label-a.jpg
    label-a.jpg
    366.1 KB · Views: 23
  • gatefold-right.jpg
    gatefold-right.jpg
    600.6 KB · Views: 22
  • gatefold-left.jpg
    gatefold-left.jpg
    530.3 KB · Views: 20
  • back.jpg
    back.jpg
    400.2 KB · Views: 22
André Previn, Royal Philharmonic Orchestra - Holst - The Planets Op. 32 (1986) Vinyl x4, Telarc, Direct metal mastering, 45rpm, Germany

front-4K.jpg


DR Peak RMS Duration Track
--------------------------------------------------------------------------------
DR13 -0.15 dB -17.35 dB 7:16 01-I. Mars, The Bringer Of War
DR15 -13.03 dB -36.30 dB 8:51 02-II. Venus, The Bringer Of Peace
DR14 -8.74 dB -29.81 dB 3:59 03-III. Mercury, The Winged Messenger
DR13 -0.19 dB -20.51 dB 7:55 04-IV. Jupiter, The Bringer Of Jollity
DR16 -3.04 dB -26.02 dB 9:09 05-V. Saturn, The Bringer Of Old Age
DR15 -0.13 dB -20.76 dB 5:55 06-VI. Uranus, The Magician
DR11 -17.97 dB -36.58 dB 7:27 07-VII. Neptune, The Mystic
--------------------------------------------------------------------------------

Number of tracks: 7
Official DR value: DR14

https://www.discogs.com/release/614...oyal-Philharmonic-Orchestra-The-Planets-Op-32

https://en.wikipedia.org/wiki/Direct_metal_mastering


4K video / AAC 192kbps. Audio from 24/192 FLAC vinyl rip.

Previn, Royal Philharmonic O - Holst - The Planets (1986) Vinyl



* I notice the difference a lot. More bass, less aeration, less 3D.
👉The more dynamics and sound complexity, the greater the loss that occurs when going down to AAC 192kbps.
 

Attachments

  • labelB.jpg
    labelB.jpg
    318.8 KB · Views: 18
  • labelA.jpg
    labelA.jpg
    328.7 KB · Views: 20
  • back.jpg
    back.jpg
    1.1 MB · Views: 23
Member
Joined 2013
Paid Member
Nice ad, nice song:

WHO ARE YOU COCO MADEMOISELLE? — CHANEL Fragrance

Amanda Lear - ''Follow Me''/1978/:

Here's some fun commentary by @jimih8539:
''Totally addicted to this song … I even went out and bought the perfume…:) I’m a 56 yo trucker. I wonder what my trucker friends will say at the local truck stop?''
Did we get the joke:):):):)?
 
The Miles Davis Quintet - Workin' With The Miles Davis Quintet (1960) Vinyl x2, 45rpm, Prestige 2003, US

front-4K.jpg


DR Peak RMS Duration Track
--------------------------------------------------------------------------------
DR12 -0.52 dB -16.79 dB 5:25 01-It Never Entered My Mind
DR10 -0.06 dB -13.25 dB 7:11 02-Four
DR12 -1.64 dB -17.08 dB 5:43 03-In Your Own Sweet Way
DR11 -1.50 dB -15.64 dB 2:00 04-The Theme (Take 1)
DR11 -0.09 dB -13.69 dB 8:32 05-Trane's Blues
DR15 -0.06 dB -18.22 dB 7:23 06-Ahmad's Blues
DR11 -1.11 dB -14.57 dB 4:45 07-Half Nelson
DR10 -1.42 dB -14.77 dB 1:08 08-The Theme (Take 2)
--------------------------------------------------------------------------------

Number of tracks: 8
Official DR value: DR12

https://www.discogs.com/release/2833688-The-Miles-Davis-Quintet-Workin-With-The-Miles-Davis-Quintet


4K video / AAC 192kbps. Audio from 24/96 FLAC vinyl rip

The Miles Davis Quintet - Workin' With The Miles Davis Quintet (1960, 2003) Vinyl


 

Attachments

  • back.jpg
    back.jpg
    616.4 KB · Views: 22
  • label-a.jpg
    label-a.jpg
    363.4 KB · Views: 19
  • label-b.jpg
    label-b.jpg
    371.4 KB · Views: 15
  • label-c.jpg
    label-c.jpg
    379.6 KB · Views: 18
  • label-d.jpg
    label-d.jpg
    406.1 KB · Views: 20