Go Back   Home > Forums > >
Home Forums Rules Articles diyAudio Store Blogs Gallery Wiki Register Donations FAQ Calendar Search Today's Posts Mark Forums Read

Music A place to discuss the thing we are doing all this other stuff for

Now Playing + What are you listening to?
Now Playing + What are you listening to?
Please consider donating to help us continue to serve you.

Ads on/off / Custom Title / More PMs / More album space / Advanced printing & mass image saving
Reply
 
Thread Tools Search this Thread
Old 29th December 2019, 03:41 PM   #8611
maty tinman is offline maty tinman  Spain
diyAudio Member
 
maty tinman's Avatar
 
Join Date: Apr 2012
Location: Tarragona (Spain)
Default Jimmy Cobb Quartet - Cobb's Corner

Jimmy Cobb Quartet - Cobb's Corner (2007), SACD, Chesky Records, US

The Jimmy Cobb Quartet* - Cobb's Corner (2007, SACD) | Discogs

Click the image to open in full size.

DR Peak RMS Duration Track
--------------------------------------------------------------------------------
DR17 -3.07 dB -24.61 dB 5:11 01-You and the Night and the Music
DR18 -2.83 dB -24.65 dB 6:29 02-My Romance
DR16 -3.48 dB -25.43 dB 6:21 03-Never Let Me Go
DR19 -3.35 dB -26.49 dB 4:44 04-John Charles
DR17 -3.24 dB -26.11 dB 6:26 05-My Foolish Heart
DR19 -4.05 dB -25.54 dB 3:13 06-I Think You're Wonderful
DR16 -5.89 dB -27.62 dB 6:37 07-Lotus Blossom
DR18 -3.00 dB -25.49 dB 6:25 08-Book's Bossa
DR15 -8.63 dB -28.60 dB 5:01 09-Ruby My Dear
DR19 -3.24 dB -28.42 dB 5:56 10-My Ship
--------------------------------------------------------------------------------

Number of tracks: 10
Official DR value: DR17


CD, year?

https://www.amazon.com/Cobbs-Corner-.../dp/B01G4BW66Y
__________________
"Comment is free, but facts are sacred" - C. P. Scott *** 40 years of the Spanish Constitution, My musical celebration

Last edited by maty tinman; 29th December 2019 at 03:45 PM.
  Reply With Quote
Old 30th December 2019, 01:17 AM   #8612
rfbrw is offline rfbrw
diyAudio Member
 
Join Date: Oct 2001
Location: .
Black Grape - A Big Day in the North
  Reply With Quote
Old 30th December 2019, 04:51 PM   #8613
maty tinman is offline maty tinman  Spain
diyAudio Member
 
maty tinman's Avatar
 
Join Date: Apr 2012
Location: Tarragona (Spain)
Default Red Garland Trio - Groovy

Red Garland Trio - Groovy (1957), Vinyl x2, mono, Analogue Productions 2006, 45rpm, 180g, US

Red Garland Trio* - Groovy (2006, 180g, Vinyl) | Discogs

Click the image to open in full size.

DR Peak RMS Duration Track
--------------------------------------------------------------------------------
DR12 -0.07 dB -14.65 dB 8:23 01-C-Jam Blues
DR14 -0.07 dB -17.84 dB 6:46 02-Gone Again
DR13 -3.01 dB -18.11 dB 4:43 03-Will You Still Be Mine?
DR13 -0.07 dB -17.21 dB 9:35 04-Willow Weep For Me
DR13 -0.07 dB -17.73 dB 7:14 05-What Can I Say, Dear
DR12 -0.31 dB -14.67 dB 3:45 06-Hey Now
--------------------------------------------------------------------------------

Number of tracks: 6
Official DR value: DR13


CD, 2006

https://www.amazon.com/Groovy-Red-Ga.../dp/B000FIHBNG


Red Garland - Wikipedia
__________________
"Comment is free, but facts are sacred" - C. P. Scott *** 40 years of the Spanish Constitution, My musical celebration
  Reply With Quote
Old 31st December 2019, 05:05 PM   #8614
Soundhappy is offline Soundhappy  France
diyAudio Member
 
Soundhappy's Avatar
 
Join Date: Oct 2012
Location: Montpellier near Mediterranean Sea France
Humo en el Agua - Señor Coconut and his Orchestra
__________________
class A amplifiers with full range speakers
sings like angels in heaven
  Reply With Quote
Old 31st December 2019, 07:14 PM   #8615
Gyuri is offline Gyuri  Hungary
diyAudio Member
 
Gyuri's Avatar
 
Join Date: Nov 2003
Location: Budapest
Sonar with David Torn – Tranceportation Vol.1 [RareNoise 2019] – Music for Watermelons
__________________
Those who would have deserved the life they are all dead already. "Oh, my dead dears!" - Captain Cat
  Reply With Quote
Old 1st January 2020, 10:14 AM   #8616
maty tinman is offline maty tinman  Spain
diyAudio Member
 
maty tinman's Avatar
 
Join Date: Apr 2012
Location: Tarragona (Spain)
Default Atrium Musicae De Madrid - Villancicos/Chansons Populaires Espagnoles 15e 16e Siecles

Atrium Musicae De Madrid - Villancicos/Chansons Populaires Espagnoles Des 15e Et 16e Siècles (1980), Vinyl, Harmonia Mundi, France

Atrium Musicae De Madrid - villancicos, chansons populaires espagnoles des 15e et 16e siecles (1980, Vinyl) | Discogs

Click the image to open in full size.

DR Peak RMS Filename
----------------------------------------------------------------------------------------------

DR13 -3.38 dB -20.06 dB 01 Poys Dezeys Que Me Quereys Ben
DR10 -13.68 dB -27.96 dB 02 Toda Mi Vida Hos Ame
DR13 -6.69 dB -24.36 dB 03 Perdida Tenyo La Color
DR23 -5.21 dB -33.20 dB 04 A Su Alvedrio
DR14 -8.49 dB -26.01 dB 05 Pase Al Agoa
DR13 -7.28 dB -22.32 dB 06 A Los Banos Del Amor
DR15 -5.18 dB -22.83 dB 07 Vesame Y Abracame
DR13 -8.00 dB -25.37 dB 08 E La Don Verges Maria
DR11 -16.74 dB -32.85 dB 09 La Begognette
DR15 -6.79 dB -26.22 dB 10 Riu Riu Chiu
DR15 -1.55 dB -20.73 dB 11 La Mas Gratiosa Serrana
DR12 -10.80 dB -27.79 dB 12 Amor Con Fortuna Contrefacon De Halcon Que Se Atreve
DR12 -11.65 dB -28.43 dB 13 Quien Vos Avia De Ilevar
DR10 -17.01 dB -29.78 dB 14 Con Que Lavare
DR14 -14.43 dB -33.71 dB 15 Con Que Lavare
DR11 -12.06 dB -25.83 dB 16 Con Que Lavare
DR15 -0.12 dB -20.32 dB 17 So Ell Enzina
DR15 -20.35 dB -41.16 dB 18 Sola Me Dexaste
DR16 -2.56 dB -24.78 dB 19 Dindirindin
DR12 -17.07 dB -35.03 dB 20 Daca Bailemos
DR10 -13.43 dB -27.39 dB 21 Panpano Verde
DR9 -18.70 dB -31.42 dB 22 La Edoarda
DR10 -16.21 dB -29.00 dB 23 Pues No Mejora Mi Suerte
DR17 -17.22 dB -37.82 dB 24 Fermata
----------------------------------------------------------------------------------------------

Number of files: 24
Official DR value: DR13


CD ?
__________________
"Comment is free, but facts are sacred" - C. P. Scott *** 40 years of the Spanish Constitution, My musical celebration
  Reply With Quote
Old 1st January 2020, 08:18 PM   #8617
maty tinman is offline maty tinman  Spain
diyAudio Member
 
maty tinman's Avatar
 
Join Date: Apr 2012
Location: Tarragona (Spain)
Default Ben Webster - Ballads

Ben Webster - Ballads (1978), DSD128, 2xHD Fusion 2017

2XHDST1074 Ballads | Albums | NativeDSD Music

Click the image to open in full size.

DR Peak RMS Duration Track
-------------------------------------------------------------------------
DR12 -7.66 dB -24.06 dB 6:25 01-Stardust
DR12 -6.09 dB -22.26 dB 4:15 02-Cry Me a River
DR14 -6.86 dB -24.55 dB 7:51 03-For Heaven's Sake
DR12 -6.49 dB -20.69 dB 2:26 04-Greensleeves
DR16 -6.24 dB -26.04 dB 8:40 05-My Romance
DR14 -6.73 dB -23.92 dB 5:21 06-Willow Weep for Me
DR16 -6.01 dB -27.27 dB 7:32 07-Old Folks
-------------------------------------------------------------------------
Number of tracks: 7
Official DR value: DR14

The 2xHD Fusion Mastering System | NativeDSD Blog


CD, 2009

https://www.amazon.com/-/Ben-Webster/dp/B001O8C5SC
__________________
"Comment is free, but facts are sacred" - C. P. Scott *** 40 years of the Spanish Constitution, My musical celebration

Last edited by maty tinman; 1st January 2020 at 08:21 PM.
  Reply With Quote
Old 2nd January 2020, 05:32 PM   #8618
maty tinman is offline maty tinman  Spain
diyAudio Member
 
maty tinman's Avatar
 
Join Date: Apr 2012
Location: Tarragona (Spain)
Default Ansermet, L'Orchestre De La Suisse Romande - Tchaikovsky - The Nutcracker

Ansermet, L'Orchestre De La Suisse Romande - Tchaikovsky - The Nutcracker (Complete) (1959), Vinyl x2, Decca 1995, Germany

Tchaikovsky*, Ansermet* - The Nutcracker (Casse-Noisette - Complete Ballet) (1959, Gatefold Sleeve, Vinyl) | Discogs

https://www.amazon.com/Nutcracker-Ca.../dp/B00HQ0IDW4

Click the image to open in full size.

DR Peak RMS Filename
----------------------------------------------------------------------------------------------

DR13 -5.27 dB -24.10 dB A1 Overture
DR15 -1.70 dB -21.31 dB A2 Act 1, Tableau 1 - No. 1. The Christmas Tree
DR13 -2.21 dB -20.13 dB A3 Act 1, Tableau 1 - No. 2. March
DR12 -0.41 dB -15.49 dB A4 Act 1, Tableau 1 - No. 3. Little Galop And Entrance Of The Guests
DR13 -0.73 dB -19.67 dB A5 Act 1, Tableau 1 - No. 4. Dance Scene - Distribution Of Presents
DR12 -0.81 dB -19.02 dB A6 Act 1, Tableau 1 - No. 5. Scene And Grandfather's Dance
DR13 -0.44 dB -18.83 dB B1 Act 1, Tableau 1 - No. 6. Scene - Guests Go - Children Retire To Bed, Magic Spell Commences
DR14 -0.48 dB -18.18 dB B2 Act 1, Tableau 1 - No. 7. Scene - Battle Between Nutcracker And Mouse King - Nutcracker Wins Battle And Is Transformed Into Handsome Prince
DR11 -1.86 dB -17.92 dB B3 Act 1, Tableau 2 - No. 8. Scene - Pine Forest In Winter
DR12 -0.70 dB -17.23 dB B4 Act 1, Tableau 2 - No. 9. Waltz Of The Snowflakes
DR12 -1.09 dB -19.03 dB C1 Act 2, Tableau 3 - No. 10. Scene - The Magic Castle
DR12 -0.89 dB -17.37 dB C2 Act 2, Tableau 3 - No. 11. Clara And Nutcracker Appear
DR11 -2.40 dB -19.34 dB C3 Act 2, Tableau 3 - No. 12. Divertissement; A. Chocolate (Spanish Dance)
DR12 -8.85 dB -27.42 dB C4 Act 2, Tableau 3 - No. 12. Divertissement; B. Coffee (Arabian Dance)
DR13 -6.36 dB -22.62 dB C5 Act 2, Tableau 3 - No. 12. Divertissement; C. Tea (Chinese Dance)
DR12 -0.45 dB -15.78 dB C6 Act 2, Tableau 3 - No. 12. Divertissement; D. Trepak (Russian Dance)
DR14 -3.90 dB -24.98 dB C7 Act 2, Tableau 3 - No. 12. Divertissement; E. Dance Of The Mirlitons (Reed Pipes)
DR11 -1.25 dB -16.97 dB C8 Act 2, Tableau 3 - No. 12. Divertissement; F. Clowns Dance
DR13 -0.51 dB -17.64 dB D1 Act 2, Tableau 3 - No. 13. Waltz Of The Flowers
DR12 -1.09 dB -18.07 dB D2 Act 2, Tableau 3 - No. 14. Pas De Deux
DR16 -2.69 dB -23.40 dB D3 Act 2, Tableau 3 - Variation 1 (Tarantelle)
DR14 -8.23 dB -27.78 dB D4 Act 2, Tableau 3 - Variation 2 (Dance Of The Sugar Plum Fairy)
DR12 -1.49 dB -18.16 dB D5 Act 2, Tableau 3 - Coda
DR12 -1.44 dB -18.41 dB D6 Act 2, Tableau 3 - No. 15. Final Waltz And Apotheosis
----------------------------------------------------------------------------------------------

Number of files: 24
Official DR value: DR13


CD ?
__________________
"Comment is free, but facts are sacred" - C. P. Scott *** 40 years of the Spanish Constitution, My musical celebration
  Reply With Quote
Old 2nd January 2020, 05:52 PM   #8619
maty tinman is offline maty tinman  Spain
diyAudio Member
 
maty tinman's Avatar
 
Join Date: Apr 2012
Location: Tarragona (Spain)
I have always been surprised how these small coaxials (KEF Q100) can reproduce an orchestral mass. After the last changes in the tweeter filter (Miflex KPCU-01 0.01uF 600Vdc as bypass and Mills MRA5 0.68 Ohms) the improvement is very noticeable.

Sounds much better than another more modern recording and has bigger DR, from Mackerras and the LSO, 1986, and that is recorded in 1959!!!
__________________
"Comment is free, but facts are sacred" - C. P. Scott *** 40 years of the Spanish Constitution, My musical celebration
  Reply With Quote
Old 2nd January 2020, 10:02 PM   #8620
chrisb is offline chrisb  Canada
diyAudio Member
 
Join Date: Aug 2002
Location: victoria BC
yet another Boh Rhap, but wait - on a full church organ?
do go on

YouTube
__________________
It’s been a slice kids
  Reply With Quote

Reply


Now Playing + What are you listening to?Hide this!Advertise here!
Thread Tools Search this Thread
Search this Thread:

Advanced Search

Posting Rules
You may not post new threads
You may not post replies
You may not post attachments
You may not edit your posts

BB code is On
Smilies are On
[IMG] code is On
HTML code is Off

Forum Jump

Similar Threads
Thread Thread Starter Forum Replies Last Post
Now playing… martyh Analogue Source 2 27th June 2008 02:46 PM
PLaying with ClassD again TroelsM Class D 12 20th February 2008 08:18 AM
Playing with ROMs Zero One Digital Source 0 13th May 2007 12:18 PM
what's better, a mid playing high, or a tweet playing low??? cody6766 Multi-Way 10 20th February 2005 09:40 PM
Aleph 5 playing... Lucas_G Pass Labs 72 11th April 2003 08:08 AM


New To Site? Need Help?

All times are GMT. The time now is 01:38 AM.


Search Engine Optimisation provided by DragonByte SEO (Pro) - vBulletin Mods & Addons Copyright © 2020 DragonByte Technologies Ltd.
Resources saved on this page: MySQL 15.00%
vBulletin Optimisation provided by vB Optimise (Pro) - vBulletin Mods & Addons Copyright © 2020 DragonByte Technologies Ltd.
Copyright ©1999-2020 diyAudio
Wiki