Go Back   Home > Forums > >
Home Forums Rules Articles diyAudio Store Blogs Gallery Wiki Register Donations FAQ Calendar Search Today's Posts Mark Forums Read

Music A place to discuss the thing we are doing all this other stuff for

Now Playing + What are you listening to?
Now Playing + What are you listening to?
Please consider donating to help us continue to serve you.

Ads on/off / Custom Title / More PMs / More album space / Advanced printing & mass image saving
Reply
 
Thread Tools Search this Thread
Old 6th August 2020, 07:24 PM   #9061
maty tinman is offline maty tinman  Spain
diyAudio Member
 
maty tinman's Avatar
 
Join Date: Apr 2012
Location: Tarragona (Spain)
Default Scotty Moore - The Guitar That Changed The World

Scotty Moore - The Guitar That Changed The World (1964), Vinyl, stereo, Epic, US

Scotty Moore - The Guitar That Changed The World (1964, Vinyl) | Discogs

Now Playing + What are you listening to?-scotty-moore-guitar-changed-world-vinyl-cover-jpg

DR Peak RMS Duration Track
--------------------------------------------------------------------------------
DR12 -0.05 dB -13.95 dB 2:15 01-Hound Dog
DR12 -1.23 dB -17.66 dB 2:34 02-Loving You
DR13 -0.14 dB -15.46 dB 2:12 03-Money Honey
DR13 -0.16 dB -14.74 dB 2:22 04-My Baby Left Me
DR13 -0.24 dB -15.53 dB 2:45 05-Heartbreak Hotel
DR12 -0.01 dB -13.83 dB 2:20 06-That's All Right
DR10 -0.05 dB -11.69 dB 2:28 07-Milk Cow Blues
DR12 -0.17 dB -14.02 dB 2:48 08-Don't
DR10 0.00 dB -12.22 dB 2:04 09-Mystery Train
DR10 -0.10 dB -11.72 dB 2:08 10-Don't Be Cruel
DR12 -0.13 dB -15.29 dB 2:50 11-Love Me Tender
DR11 -0.07 dB -12.68 dB 2:19 12-Mean Woman Blues
--------------------------------------------------------------------------------

Number of tracks: 12
Official DR value: DR12


Scotty Moore - The Guitar That Changed The World - Amazon.com Music
__________________
"Comment is free, but facts are sacred" - C. P. Scott *** 40 years of the Spanish Constitution, My musical celebration
  Reply With Quote
Old Yesterday, 01:24 PM   #9062
Kjeldsen is offline Kjeldsen  Denmark
diyAudio Member
 
Join Date: Dec 2003
Location: Randers, Denmark

A blend of folk, prog, black and death
__________________
http://kjeldsensforbindelser.dk
  Reply With Quote
Old Yesterday, 01:27 PM   #9063
soundbrigade is offline soundbrigade  Sweden
diyAudio Member
 
soundbrigade's Avatar
 
Join Date: Feb 2006
Location: Vaenersborg, Sweden
Send a message via MSN to soundbrigade
Playing my CDs i paper convolutes ... Now playing:

Memories Of Machines
- Warm Winter
__________________
/Magnus
Due to economical cutbacks, the light at the end of the tunnel has to be switched off.
  Reply With Quote
Old Yesterday, 06:33 PM   #9064
Soundhappy is offline Soundhappy  France
diyAudio Member
 
Soundhappy's Avatar
 
Join Date: Oct 2012
Location: Montpellier near Mediterranean Sea France
G.F. HANDEL: Organ Concerto in F major Op. 4/4 HWV 292, La Divina Armonia - YouTube
__________________
class A amplifiers with full range speakers
sings like angels in heaven
  Reply With Quote
Old Yesterday, 07:08 PM   #9065
maty tinman is offline maty tinman  Spain
diyAudio Member
 
maty tinman's Avatar
 
Join Date: Apr 2012
Location: Tarragona (Spain)
Default Various - Superstars Of The 70's

Various - Superstars Of The 70's (1973), Vinyl x4, Warner Special Products, US

Superstars Of The 70's (1973, Vinyl) | Discogs

Click the image to open in full size.

Analyzed: Alice Cooper / Superstars Of The 70's (1)
Seals & Crofts / Superstars Of The 70's (2)
Beach Boys / Superstars Of The 70's (3)
Randy Newman / Superstars Of The 70's (4)
Judy Collins / Superstars Of The 70's (5)
The Doors / Superstars Of The 70's (6)
Bee Gees / Superstars Of The 70's (7)
James Taylor / Superstars Of The 70's (8)
Grateful Dead / Superstars Of The 70's (9)
Roberta Flack & Donny Hathaway / Superstars Of The 70's (10)
Stephen Stills / Superstars Of The 70's (11)
Yes / Superstars Of The 70's (12)
The Doors / Superstars Of The 70's (13)
Jefferson Airplane / Superstars Of The 70's (14)
Crosby, Stiils & Nash / Superstars Of The 70's (15)
Jimi Hendrix / Superstars Of The 70's (16)
Bee Gees / Superstars Of The 70's (17)
The Kinks / Superstars Of The 70's (18)
Carly Simon / Superstars Of The 70's (19)
Guess Who / Superstars Of The 70's (20)
Todd Rundgren / Superstars Of The 70's (21)
America / Superstars Of The 70's (22)
Jo Jo Gunne / Superstars Of The 70's (23)
Rolling Stones / Superstars Of The 70's (24)
Otis Redding / Superstars Of The 70's (25)
Deep Purple / Superstars Of The 70's (26)
Gordon Lightfoot / Superstars Of The 70's (27)
Roberta Flack / Superstars Of The 70's (28)
Jimi Hendrix / Superstars Of The 70's (29)
Led Zeppelin / Superstars Of The 70's (30)
Eagles / Superstars Of The 70's (31)
America / Superstars Of The 70's (32)
The Byrds / Superstars Of The 70's (33)
Joni Mitchell / Superstars Of The 70's (34)
Guess Who / Superstars Of The 70's (35)
Van Morrison / Superstars Of The 70's (36)
Judy Collins / Superstars Of The 70's (37)
Doobie Brothers / Superstars Of The 70's (38)
Joni Mitchell / Superstars Of The 70's (39)
Wilson Pickett / Superstars Of The 70's (40)
Arlo Guthrie / Superstars Of The 70's (41)
Jackson Browne / Superstars Of The 70's (42)
Black Sabbath / Superstars Of The 70's (43)
Allman Brothers Band / Superstars Of The 70's (44)
Aretha Franklin / Superstars Of The 70's (45)
Faces / Superstars Of The 70's (46)
Graham Nash / Superstars Of The 70's (47)
Rolling Stones / Superstars Of The 70's (48)
Emerson, Lake & Palmer / Superstars Of The 70's (49)
--------------------------------------------------------------------------------

DR Peak RMS Duration Track
--------------------------------------------------------------------------------
DR11 -3.11 dB -15.22 dB 3:29 01-School's Out
DR11 -2.80 dB -16.02 dB 3:25 02-Summer Breeze
DR11 -3.77 dB -19.71 dB 4:14 03-Surf's Up
DR11 -1.80 dB -17.85 dB 2:51 04-Sail Away
DR11 -2.73 dB -16.60 dB 3:14 05-Both Sides Now
DR12 -0.72 dB -15.34 dB 4:15 06-Tightrope Ride
DR13 -3.30 dB -21.51 dB 3:46 07-Lonley Days
DR14 -0.62 dB -19.27 dB 3:17 08-Fire & Rain
DR11 -1.99 dB -16.08 dB 5:04 09-Truckin'
DR12 -0.96 dB -17.54 dB 2:44 10-Where Is The Love
DR10 -5.37 dB -16.94 dB 3:09 11-Love The One You're With
DR11 -2.64 dB -16.78 dB 3:28 12-Roundabout
DR11 -3.71 dB -17.19 dB 7:11 13-Light My Fire
DR12 -4.11 dB -19.10 dB 2:35 14-White Rabbit
DR13 -3.07 dB -19.03 dB 2:33 15-Marrakesh Express
DR12 -3.65 dB -17.38 dB 2:48 16-Purple Haze
DR11 -4.35 dB -18.70 dB 3:01 17-To Love Somebody
DR12 -3.64 dB -17.57 dB 4:01 18-Lola
DR14 -2.37 dB -21.31 dB 3:23 19-Anticipation
DR13 -3.20 dB -18.92 dB 5:06 20-American Woman
DR12 -5.03 dB -19.58 dB 3:08 21-We Gotta Get You A Woman
DR12 -4.06 dB -17.74 dB 3:31 22-Ventura Highway
DR13 -5.38 dB -20.33 dB 2:36 23-Run Run Run
DR12 -4.79 dB -19.20 dB 3:39 24-Tumbling Dice
DR13 -6.65 dB -22.07 dB 2:42 25-Dock Of The Bay
DR11 -5.40 dB -19.07 dB 4:26 26-Hush
DR11 -1.26 dB -18.55 dB 3:49 27-If You Could Read My Mind
DR12 -5.40 dB -22.12 dB 5:23 28-The First Time Ever I Saw You Face
DR12 -3.37 dB -17.70 dB 3:18 29-Foxey Lady
DR12 -1.95 dB -18.26 dB 5:33 30-Whole Lotta Love
DR12 -3.41 dB -16.82 dB 3:25 31-Take It Easy
DR12 -2.08 dB -16.84 dB 4:04 32-Horse With No Name
DR12 -4.06 dB -18.46 dB 3:26 33-Cowgirl In The Sand
DR10 -5.52 dB -18.52 dB 2:17 34-Big Yellow Taxi
DR11 -4.57 dB -18.34 dB 3:44 35-These Eyes
DR13 -1.55 dB -17.32 dB 3:11 36-Domino
DR11 -4.20 dB -19.09 dB 4:11 37-Amazing Grace
DR13 -3.02 dB -19.34 dB 4:36 38-Listen To The Music
DR10 -8.28 dB -22.71 dB 5:29 39-Woodstock
DR15 -4.41 dB -22.23 dB 2:24 40-In The Midnight Hour
DR13 -3.46 dB -20.34 dB 4:28 41-The City Of New Orleans
DR13 -4.09 dB -20.62 dB 3:02 42-Doctor My Eyes
DR12 -7.30 dB -21.37 dB 2:49 43-Paranoid
DR11 -2.22 dB -15.91 dB 4:57 44-One Way Out
DR13 -1.80 dB -18.30 dB 2:44 45-(You Make Me Feel Like) A Natural Woman
DR12 -1.18 dB -16.14 dB 4:39 46-Stay With Me
DR12 -0.50 dB -15.59 dB 2:55 47-Chicago
DR12 -1.84 dB -16.39 dB 3:06 48-Happy
DR10 -5.38 dB -18.80 dB 4:38 49-Lucky Man
--------------------------------------------------------------------------------

Number of tracks: 49
Official DR value: DR12
__________________
"Comment is free, but facts are sacred" - C. P. Scott *** 40 years of the Spanish Constitution, My musical celebration
  Reply With Quote
Old Yesterday, 08:44 PM   #9066
Kjeldsen is offline Kjeldsen  Denmark
diyAudio Member
 
Join Date: Dec 2003
Location: Randers, Denmark
Why do you copy in all those DR values? I'm not sure I understand the purpose (I know what Dr is)
__________________
http://kjeldsensforbindelser.dk
  Reply to this post

Reply


Now Playing + What are you listening to?Hide this!Advertise here!
Thread Tools Search this Thread
Search this Thread:

Advanced Search

Posting Rules
You may not post new threads
You may not post replies
You may not post attachments
You may not edit your posts

BB code is On
Smilies are On
[IMG] code is On
HTML code is Off

Forum Jump

Similar Threads
Thread Thread Starter Forum Replies Last Post
Now playing… martyh Analogue Source 2 27th June 2008 02:46 PM
PLaying with ClassD again TroelsM Class D 12 20th February 2008 08:18 AM
Playing with ROMs Zero One Digital Source 0 13th May 2007 12:18 PM
what's better, a mid playing high, or a tweet playing low??? cody6766 Multi-Way 10 20th February 2005 09:40 PM
Aleph 5 playing... Lucas_G Pass Labs 72 11th April 2003 08:08 AM


New To Site? Need Help?

All times are GMT. The time now is 08:18 AM.


Search Engine Optimisation provided by DragonByte SEO (Pro) - vBulletin Mods & Addons Copyright © 2020 DragonByte Technologies Ltd.
Resources saved on this page: MySQL 15.00%
vBulletin Optimisation provided by vB Optimise (Pro) - vBulletin Mods & Addons Copyright © 2020 DragonByte Technologies Ltd.
Copyright ©1999-2020 diyAudio
Wiki