Go Back   Home > Forums > >
Home Forums Rules Articles diyAudio Store Blogs Gallery Wiki Register Donations FAQ Calendar Search Today's Posts Mark Forums Read

Music A place to discuss the thing we are doing all this other stuff for

Now Playing + What are you listening to?
Now Playing + What are you listening to?
Please consider donating to help us continue to serve you.

Ads on/off / Custom Title / More PMs / More album space / Advanced printing & mass image saving
Reply
 
Thread Tools Search this Thread
Old 27th November 2019, 07:53 PM   #8491
maty tinman is offline maty tinman  Spain
diyAudio Member
 
maty tinman's Avatar
 
Join Date: Apr 2012
Location: Tarragona (Spain)
Dynamic range - Wikipedia

Loudness war - Wikipedia

Album list - Dynamic Range Database


THE LOUDNESS WAR | LOUDNESS MEASURE | WAR OF LOUDNESS | CD LOUDNESS WAR | STOP THE LOUDNES: Dynamic Range Meter and Foobar 2000
__________________
"Comment is free, but facts are sacred" - C. P. Scott *** 40 years of the Spanish Constitution, My musical celebration

Last edited by maty tinman; 27th November 2019 at 08:00 PM.
  Reply With Quote
Old 28th November 2019, 05:20 PM   #8492
maty tinman is offline maty tinman  Spain
diyAudio Member
 
maty tinman's Avatar
 
Join Date: Apr 2012
Location: Tarragona (Spain)
Default Rory Gallagher - Calling Card

Rory Gallagher - Calling Card (1976), Vinyl, Chrysalis, Germany

Rory Gallagher - Calling Card (1976, Vinyl) | Discogs

Click the image to open in full size.

DR Peak RMS Filename
----------------------------------------------------------------------------------------------

DR14 -0.62 dB -15.96 dB A1 Do You Read Me
DR12 -0.50 dB -15.79 dB A2 Country Mile
DR12 -0.56 dB -14.85 dB A3 Moonchild
DR14 -0.85 dB -17.67 dB A4 Calling Card
DR14 -0.77 dB -17.51 dB A5 I'll Admit You're Gone
DR13 -0.39 dB -14.97 dB B1 Secret Agent
DR15 -0.71 dB -18.31 dB B2 Jackknife Beat
DR12 -0.95 dB -15.09 dB B3 Edged In Blue
DR13 -0.67 dB -15.80 dB B4 Barley And Grape Rag
----------------------------------------------------------------------------------------------

Number of files: 9
Official DR value: DR13


CD, 2008 DR8

https://www.amazon.com/Calling-Card-.../dp/B0012GN44U


Album list - Dynamic Range Database
__________________
"Comment is free, but facts are sacred" - C. P. Scott *** 40 years of the Spanish Constitution, My musical celebration
  Reply With Quote
Old 28th November 2019, 05:45 PM   #8493
Soundhappy is offline Soundhappy  France
diyAudio Member
 
Soundhappy's Avatar
 
Join Date: Oct 2012
Location: Montpellier near Mediterranean Sea France
play from CD this one Bach, Brandenburg Concert No 4 - Nikolaus Harnoncourt
__________________
class A amplifiers with full range speakers
sings like angels in heaven
  Reply With Quote
Old 28th November 2019, 06:44 PM   #8494
maty tinman is offline maty tinman  Spain
diyAudio Member
 
maty tinman's Avatar
 
Join Date: Apr 2012
Location: Tarragona (Spain)
Default Johann Sebastian Bach, Concerto Köln - Brandenburg Concertos (2018)

Johann Sebastian Bach, Concerto Köln - Brandenburg Concertos (2018), Vinyl x2, Berlin Classics, Germany

https://www.discogs.com/Johann-Sebastian-Bach-Concerto-Köln-Brandenburg-Concertos/release/11732754

Click the image to open in full size.

DR Peak RMS Filename
----------------------------------------------------------------------------------------------

DR12 -0.61 dB -16.44 dB A1 Brandenburgisches Konzert N. 1 F-Dur in F Major - BWV 1046 - 1. Allegro
DR12 -8.64 dB -23.65 dB A2 Brandenburgisches Konzert N. 1 F-Dur in F Major - BWV 1046 - 2. Adagio
DR14 -1.14 dB -19.37 dB A3 Brandenburgisches Konzert N. 1 F-Dur in F Major - BWV 1046 - 3. Allegro
DR14 -1.96 dB -19.39 dB A4 Brandenburgisches Konzert N. 1 F-Dur in F Major - BWV 1046 - 4. Menuet-Trio-Menuet-Polonaise-Menuet-Trio-Menuet
DR13 -0.51 dB -16.61 dB B1 Brandenburgisches Konzert N. 2 F-Dur in F Major - BWV 1047 - 1. Allegro
DR12 -6.58 dB -21.76 dB B1 Brandenburgisches Konzert N. 2 F-Dur in F Major - BWV 1047 - 2. Andante
DR13 -1.65 dB -17.83 dB B2 Brandenburgisches Konzert N. 2 F-Dur in F Major - BWV 1047 - 3. Allegro assai
DR14 -0.82 dB -18.06 dB B4 Brandenburgisches Konzert N. 3 G-Dur in G Major - BWV 1048 - 1. Allegro
DR10 -15.60 dB -29.30 dB B5 Brandenburgisches Konzert N. 3 G-Dur in G Major - BWV 1048 - 2. Adagio
DR13 -2.67 dB -19.35 dB B6 Brandenburgisches Konzert N. 3 G-Dur in G Major - BWV 1048 - 3. Allegro
DR13 -0.88 dB -17.54 dB C1 Brandenburgisches Konzert N. 4 G-Dur in G Major - BWV 1049 - 1. Allegro
DR11 -2.80 dB -17.33 dB C2 Brandenburgisches Konzert N. 4 G-Dur in G Major - BWV 1049 - 2. Andante
DR12 -1.89 dB -17.42 dB C3 Brandenburgisches Konzert N. 4 G-Dur in G Major - BWV 1049 - 3. Presto
DR15 -0.64 dB -19.53 dB C4 Brandenburgisches Konzert N. 5 D-Dur in D Major - BWV 1050 - 1. Allegro
DR13 -3.67 dB -22.08 dB D1 Brandenburgisches Konzert N. 5 D-Dur in D Major -0 BWV 1050 - 2. Affettuoso
DR13 -1.52 dB -17.89 dB D2 Brandenburgisches Konzert N. 5 D-Dur in D Major - BWV 1050 - 3. Allegro
DR13 -0.54 dB -16.36 dB D3 Brandenburgisches Konzert N. 6 B-Dur in B flat Major - BWV 1051 - 1. Allegro
DR13 -1.67 dB -18.45 dB D4 Brandenburgisches Konzert N. 6 B-Dur in B flat Major - BWV 1051 - 2. Adagio ma non tanto
DR14 -1.09 dB -17.33 dB D5 Brandenburgisches Konzert N. 6 B-Dur in B flat Major - BWV 1051 - 3. Allegro
----------------------------------------------------------------------------------------------

Number of files: 19
Official DR value: DR13


CD, 2014

https://www.amazon.de/Concerto-Köln-Brandenburgische-Konzerte/dp/B00MAUYWH0
__________________
"Comment is free, but facts are sacred" - C. P. Scott *** 40 years of the Spanish Constitution, My musical celebration
  Reply With Quote
Old 28th November 2019, 11:13 PM   #8495
woody is offline woody
diyAudio Member
 
Join Date: Jan 2002
Location: Tyrone Ga. U.S.A.
I have a little problem. I bought a DVD of the Led Zeppelin protion of the 2012 music awards as it had a killer preformance of Stairway To Heaven by Heart. But I realy need to just copy the music to a cd so I can use my external DAC. Is there a easy way to do this and don't say Windows Media center as for some reason it just won't work for me or ends up converting it to a mp3.
  Reply With Quote
Old 29th November 2019, 08:20 AM   #8496
maty tinman is offline maty tinman  Spain
diyAudio Member
 
maty tinman's Avatar
 
Join Date: Apr 2012
Location: Tarragona (Spain)
Quote:
Originally Posted by woody View Post
I have a little problem. I bought a DVD of the Led Zeppelin protion of the 2012 music awards as it had a killer preformance of Stairway To Heaven by Heart. But I realy need to just copy the music to a cd so I can use my external DAC. Is there a easy way to do this and don't say Windows Media center as for some reason it just won't work for me or ends up converting it to a mp3.
DVD Audio Extractor -- Full featured DVD audio ripper for your easy use - 30 day trial

There are others soft.
__________________
"Comment is free, but facts are sacred" - C. P. Scott *** 40 years of the Spanish Constitution, My musical celebration
  Reply With Quote
Old 29th November 2019, 04:59 PM   #8497
maty tinman is offline maty tinman  Spain
diyAudio Member
 
maty tinman's Avatar
 
Join Date: Apr 2012
Location: Tarragona (Spain)
Default Various - Die Stereo Hörtest Lp Volume III

Various - Die Stereo Hörtest Lp Volume III (2019), Vinyl, in-akustik, 45rpm 180g, Germany

https://www.discogs.com/Various-Die-Stereo-Hörtest-Lp-Volume-III/release/13760032
https://www.in-akustik.de/en/music-...ie-stereo-hoertest-lp-vol-ix-45-rpm-01679341/

Click the image to open in full size.

DR Peak RMS Filename
----------------------------------------------------------------------------------------------

DR13 -0.76 dB -17.87 dB A1 Eduard Strauss - Bahn Frei Polka
DR13 -0.65 dB -16.87 dB A2 Scotty Wright - Sound Of Silence
DR11 -0.78 dB -13.78 dB A3 Tokunbo Akinro - New June
DR11 -0.75 dB -15.40 dB A4 Martin Vatter - Exiting
DR15 -0.63 dB -18.40 dB B1 California Project - Wouldn't It Be Nice
DR13 -0.51 dB -17.32 dB B2 Lyn Stanley - Over The Rainbow
DR14 -0.72 dB -17.25 dB B3 Rafael Fraga - Terra Presa
DR11 -0.52 dB -14.15 dB B4 Rodrigo Y Gabriela - Juan Loco
DR11 -0.53 dB -14.27 dB C1 Jacob Bellens - Benaeath A Cloud
DR12 -0.52 dB -15.35 dB C2 Kevin Seddiki, Sandra Rumolino - Tres Luceros
DR13 -0.54 dB -15.94 dB C3 Paul Kuhn And The Best - Young At Heart
DR13 -0.40 dB -17.06 dB C4 Anne Bisson Trio - Summer Me, Winter Me
DR12 -0.25 dB -14.67 dB D1 Macy Gray - Slowly
DR9 -0.29 dB -11.80 dB D2 Brian Flanagan - Whole Lot Of Livin
DR14 -0.25 dB -17.74 dB D3 Ron Nelson - Rocky Point Holiday
----------------------------------------------------------------------------------------------

Number of files: 15
Official DR value: DR12
__________________
"Comment is free, but facts are sacred" - C. P. Scott *** 40 years of the Spanish Constitution, My musical celebration
  Reply With Quote
Old 29th November 2019, 06:20 PM   #8498
maty tinman is offline maty tinman  Spain
diyAudio Member
 
maty tinman's Avatar
 
Join Date: Apr 2012
Location: Tarragona (Spain)
Default Freddie Mercury - Mr. Bad Guy, Special Edition 2019

Freddie Mercury - Mr. Bad Guy (1986), Vinyl, Mercury Special Edition 2019, Europe

Freddie Mercury - Mr. Bad Guy (2019, Vinyl) | Discogs

Click the image to open in full size.

DR Peak RMS Filename
----------------------------------------------------------------------------------------------

DR11 -0.65 dB -13.42 dB A1 Let's Turn It On
DR10 -1.18 dB -13.08 dB A2 Made In Heaven
DR10 -1.62 dB -13.46 dB A3 I Was Born To Love You
DR12 -0.83 dB -14.41 dB A4 Foolin' Around
DR11 -1.63 dB -14.47 dB A5 Your Kind Of Lover
DR10 -2.12 dB -14.82 dB B1 Mr. Bad Guy
DR11 -1.07 dB -13.39 dB B2 Man Made Paradise
DR10 -1.72 dB -14.12 dB B3 There Must Be More To Life Than This
DR11 -1.69 dB -14.26 dB B4 Living On My Own
DR11 -0.51 dB -13.21 dB B5 My Love Is Dangerous
DR10 -1.55 dB -13.38 dB B6 Love Me Like There's No Tomorrow
----------------------------------------------------------------------------------------------

Number of files: 11
Official DR value: DR11


I have to the 1985, CBS UK pressing, and in CD too.

DR Peak RMS Filename
----------------------------------------------------------------------------------------------

DR12 -0.88 dB -15.10 dB A1 Let's Turn It On
DR11 -1.88 dB -16.86 dB A2 Made In Heaven
DR12 -0.75 dB -15.39 dB A3 I Was Born To Love You
DR13 -1.19 dB -16.20 dB A4 Foolin' Around
DR13 -1.33 dB -17.11 dB A5 Your Kind Of Lover
DR12 -1.16 dB -16.17 dB B1 Mr. Bad Guy
DR13 -1.26 dB -17.14 dB B2 Man Made Paradise
DR12 -2.59 dB -17.86 dB B3 There Must Be More To Life Than This
DR13 -1.33 dB -16.50 dB B4 Living On My Own
DR12 -1.16 dB -16.58 dB B5 My Love Is Dangerous
DR13 -2.78 dB -18.74 dB B6 Love Me Like There's No Tomorrow
----------------------------------------------------------------------------------------------

Number of files: 11
Official DR value: DR12

Trust me, the Spetial Edition 2019 sounds much betterrrrrrrrrrrrr.

Oh my God, oh my God!!!!
__________________
"Comment is free, but facts are sacred" - C. P. Scott *** 40 years of the Spanish Constitution, My musical celebration
  Reply With Quote
Old 29th November 2019, 06:22 PM   #8499
maty tinman is offline maty tinman  Spain
diyAudio Member
 
maty tinman's Avatar
 
Join Date: Apr 2012
Location: Tarragona (Spain)
I was born to love you

An amazing feeling coming through
I was born to love you
With every single beat of my heart
Yes, I was born to take care of you
Every single day of my life

You are the one for me, I am the man for you
You were made for me, you're my ecstasy
If I was given every opportunity I'd kill for your Love
So take a chance with me, let me romance with you
I'm caught in a dream, and my dream's come true
(It's) so hard to believe this is happening to me
An amazing feeling coming through

I was born to love you
With every single beat of my heart, yes
I was born to take care of you
Every single day of my life

I wanna love you, I love every little thing about you
I wanna love you, love you, love you
Born to love you, born to love you, yes I was born to Love you
Born to love you, born to love you every single day of my life
I was born to take care of you every single day of my life

I was born to love you
With every single beat of my heart
Yeah, I was born to take care of you, honey
Every single day of my life
__________________
"Comment is free, but facts are sacred" - C. P. Scott *** 40 years of the Spanish Constitution, My musical celebration
  Reply With Quote
Old 30th November 2019, 10:53 AM   #8500
maty tinman is offline maty tinman  Spain
diyAudio Member
 
maty tinman's Avatar
 
Join Date: Apr 2012
Location: Tarragona (Spain)
Default David Bowie - Hunky Dory, Parlophone Remaster 2016

David Bowie - Hunky Dory (1971), Vinyl, Parlophone Remaster 2016, 180g, Europe

David Bowie - Hunky Dory (2016, 180 Gram, Vinyl) | Discogs

Click the image to open in full size.

DR Peak RMS Filename
----------------------------------------------------------------------------------------------

DR13 -0.58 dB -17.43 dB A1 Changes
DR13 -0.34 dB -17.90 dB A2 Oh You Pretty Things
DR13 -5.69 dB -23.20 dB A3 Eight Line Poem
DR12 -1.17 dB -14.94 dB A4 Life On Mars
DR12 -1.61 dB -16.39 dB A5 Kooks
DR13 -0.55 dB -17.44 dB A6 Quicksand
DR15 -2.04 dB -20.28 dB B1 Fill Your Heart
DR15 -0.63 dB -18.41 dB B2 Andy Warhol
DR13 -1.00 dB -16.55 dB B3 Song For Bob Dylan
DR12 -0.71 dB -14.54 dB B4 Queen Bitch
DR13 -2.76 dB -21.08 dB B5 The Bewlay Brothers
----------------------------------------------------------------------------------------------

Number of files: 11
Official DR value: DR13


1971, Mainman, UK
David Bowie - Hunky Dory (1971, Laminated Sleeve, Vinyl) | Discogs

DR Peak RMS Duration Track
--------------------------------------------------------------------------------
DR13 -1.55 dB -19.05 dB 3:37 A1 Changes
DR13 -0.46 dB -18.50 dB 3:12 A2 Oh! You Pretty Things
DR13 -6.85 dB -24.44 dB 2:58 A3 Eight Line Poem
DR11 -2.45 dB -16.64 dB 3:56 A4 Life On Mars
DR12 -2.39 dB -17.47 dB 2:54 A5 Kooks
DR12 -2.38 dB -18.78 dB 5:04 A6 Quicksand
DR13 -2.18 dB -19.13 dB 3:08 B1 Fill Your Heart
DR12 -0.91 dB -17.31 dB 3:57 B2 Andy Warhol
DR12 -1.35 dB -15.79 dB 4:15 B3 Song For Bob Dylan
DR12 -1.41 dB -14.70 dB 3:21 B4 Queen Bitch
DR12 -2.73 dB -20.78 dB 5:23 B5 The Bewlay Brothers
--------------------------------------------------------------------------------

Number of tracks: 11
Official DR value: DR12


CD, year?

https://www.amazon.com/Hunky-Dory-DA.../dp/B0000009NH


Album list - Dynamic Range Database
__________________
"Comment is free, but facts are sacred" - C. P. Scott *** 40 years of the Spanish Constitution, My musical celebration
  Reply With Quote

Reply


Now Playing + What are you listening to?Hide this!Advertise here!
Thread Tools Search this Thread
Search this Thread:

Advanced Search

Posting Rules
You may not post new threads
You may not post replies
You may not post attachments
You may not edit your posts

BB code is On
Smilies are On
[IMG] code is On
HTML code is Off

Forum Jump

Similar Threads
Thread Thread Starter Forum Replies Last Post
Now playing… martyh Analogue Source 2 27th June 2008 02:46 PM
PLaying with ClassD again TroelsM Class D 12 20th February 2008 08:18 AM
Playing with ROMs Zero One Digital Source 0 13th May 2007 12:18 PM
what's better, a mid playing high, or a tweet playing low??? cody6766 Multi-Way 10 20th February 2005 09:40 PM
Aleph 5 playing... Lucas_G Pass Labs 72 11th April 2003 08:08 AM


New To Site? Need Help?

All times are GMT. The time now is 07:22 AM.


Search Engine Optimisation provided by DragonByte SEO (Pro) - vBulletin Mods & Addons Copyright © 2020 DragonByte Technologies Ltd.
Resources saved on this page: MySQL 15.00%
vBulletin Optimisation provided by vB Optimise (Pro) - vBulletin Mods & Addons Copyright © 2020 DragonByte Technologies Ltd.
Copyright ©1999-2020 diyAudio
Wiki