Go Back   Home > Forums > >
Home Forums Rules Articles diyAudio Store Blogs Gallery Wiki Register Donations FAQ Calendar Search Today's Posts Mark Forums Read

Music A place to discuss the thing we are doing all this other stuff for

Now Playing + What are you listening to?
Now Playing + What are you listening to?
Please consider donating to help us continue to serve you.

Ads on/off / Custom Title / More PMs / More album space / Advanced printing & mass image saving
Reply
 
Thread Tools Search this Thread
Old 16th November 2019, 06:49 PM   #8461
Gyuri is offline Gyuri  Hungary
diyAudio Member
 
Gyuri's Avatar
 
Join Date: Nov 2003
Location: Budapest
De Profundis (After Crying album) - Wikipedia

After Crying - De Profundis (1996, CD) | Discogs
__________________
Those who would have deserved the life they are all dead already. "Oh, my dead dears!" - Captain Cat
  Reply With Quote
Old 16th November 2019, 07:44 PM   #8462
Gyuri is offline Gyuri  Hungary
diyAudio Member
 
Gyuri's Avatar
 
Join Date: Nov 2003
Location: Budapest
After Crying : Jónás imája / Jonah's Prayer (featuring Latinovits Zoltán)

YouTube
__________________
Those who would have deserved the life they are all dead already. "Oh, my dead dears!" - Captain Cat
  Reply With Quote
Old 17th November 2019, 03:44 PM   #8463
maty tinman is offline maty tinman  Spain
diyAudio Member
 
maty tinman's Avatar
 
Join Date: Apr 2012
Location: Tarragona (Spain)
Default Robert Plant - Fate Of Nations

Robert Plant - Fate Of Nations (1993), Vinyl, Fontana Records, Europe

Robert Plant - Fate Of Nations (1993, Vinyl) | Discogs

Click the image to open in full size.

DR Peak RMS Duration Track
--------------------------------------------------------------------------------
DR12 -0.41 dB -14.55 dB 5:46 01-Calling To You
DR11 -2.93 dB -16.22 dB 3:59 02-Down To The Sea
DR11 -2.60 dB -17.14 dB 6:30 03-Come Into My Life
DR12 -1.10 dB -15.54 dB 4:31 04-I Believe
DR12 -0.90 dB -14.93 dB 4:50 05-29 Palms
DR13 -0.71 dB -15.30 dB 5:21 06-Memory Song (Hello Hello)
DR12 -3.19 dB -17.38 dB 3:44 07-If I Were A Carpenter
DR11 -2.40 dB -17.58 dB 4:42 08-Colours Of A Shade
DR11 -0.40 dB -13.94 dB 4:56 09-Promised Land
DR11 -0.89 dB -14.96 dB 6:52 10-The Greatest Gift
DR12 -0.62 dB -15.19 dB 5:26 11-Great Spirit
DR11 -2.30 dB -15.98 dB 6:36 12-Network News
--------------------------------------------------------------------------------

Number of tracks: 12
Official DR value: DR12


CD, 2007

https://www.amazon.com/Fate-Nations-.../dp/B000I0SGRG


Album list - Dynamic Range Database
__________________
"Comment is free, but facts are sacred" - C. P. Scott *** 40 years of the Spanish Constitution, My musical celebration
  Reply With Quote
Old 17th November 2019, 04:54 PM   #8464
maty tinman is offline maty tinman  Spain
diyAudio Member
 
maty tinman's Avatar
 
Join Date: Apr 2012
Location: Tarragona (Spain)
Default Rory Gallagher - Jinx

Rory Gallagher - Jinx (1982), Vinyl, Chrysalis 1st Pressing, Germany

Rory Gallagher - Jinx (1982, Vinyl) | Discogs

Click the image to open in full size.

DR Peak RMS Filename
----------------------------------------------------------------------------------------------

DR13 -0.43 dB -14.57 dB A1 Signals
DR11 -0.49 dB -13.03 dB A2 The Devil Made Me Do It
DR12 -0.39 dB -13.96 dB A3 Double Vision
DR12 -0.61 dB -14.95 dB A4 Easy Come, Easy Go
DR11 -0.52 dB -12.74 dB A5 Big Guns.
DR12 -0.24 dB -13.82 dB B1 Jinxed
DR11 -0.39 dB -12.99 dB B2 Bourbon
DR11 -0.89 dB -13.88 dB B3 Ride On Red, Ride On
DR13 -0.35 dB -15.37 dB B4 Loose Talk
----------------------------------------------------------------------------------------------

Number of files: 9
Official DR value: DR12


CD, 2011

https://www.amazon.com/Jinx-Rory-Gal.../dp/B0052T7HX2


Album list - Dynamic Range Database
__________________
"Comment is free, but facts are sacred" - C. P. Scott *** 40 years of the Spanish Constitution, My musical celebration
  Reply With Quote
Old 17th November 2019, 07:12 PM   #8465
maty tinman is offline maty tinman  Spain
diyAudio Member
 
maty tinman's Avatar
 
Join Date: Apr 2012
Location: Tarragona (Spain)
Default The Doors - Weird Scenes Inside The Gold Mine

The Doors - Weird Scenes Inside The Gold Mine (1972), Vinyl x2, Elektra Remaster 2014, Europe

The Doors - Weird Scenes Inside The Gold Mine (2014, Amber Swirl, Vinyl) | Discogs

Click the image to open in full size.

DR Peak RMS Filename
----------------------------------------------------------------------------------------------

DR11 -2.97 dB -16.06 dB A1 Break On Through
DR10 -2.61 dB -15.72 dB A2 Strange Days
DR14 -0.72 dB -16.43 dB A3 Shaman's Blues
DR11 -5.15 dB -18.78 dB A4 Love Street
DR14 -1.68 dB -18.01 dB A5 Peace Frog - Blue Sunday
DR14 -0.79 dB -16.81 dB A6 The Wasp (Texas Radio and The Big Beat)
DR11 -3.24 dB -18.67 dB A7 End Of The Night
DR14 -0.89 dB -17.34 dB B1 Love Her Madly
DR12 -2.22 dB -18.11 dB B2 Spanish Caravan
DR11 -2.18 dB -15.68 dB B3 Ship Of Fools
DR14 -0.81 dB -18.60 dB B4 The Spy
DR12 -2.93 dB -19.35 dB B5 The End
DR10 -1.71 dB -14.61 dB C1 Take It As It Comes
DR15 -1.11 dB -17.52 dB C2 Running Blue
DR14 -1.89 dB -18.50 dB C3 L.A. Woman
DR12 -2.73 dB -17.89 dB C4 Five To One
DR13 -0.91 dB -16.45 dB C5 Who Scared You
DR11 -2.98 dB -16.12 dB C6 (You Need Meat) Don't Go No Further
DR16 -0.24 dB -20.50 dB D1 Riders On The Storm
DR13 -3.96 dB -19.35 dB D2 Maggie McGill
DR11 -6.82 dB -21.87 dB D3 Horse Latitudes
DR12 -3.68 dB -19.78 dB D4 When The Music's Over
----------------------------------------------------------------------------------------------

Number of files: 22
Official DR value: DR12


CD, 2014

https://www.amazon.com/Weird-Scenes-.../dp/B0009S87YE


Album list - Dynamic Range Database
__________________
"Comment is free, but facts are sacred" - C. P. Scott *** 40 years of the Spanish Constitution, My musical celebration
  Reply With Quote
Old 18th November 2019, 05:12 PM   #8466
maty tinman is offline maty tinman  Spain
diyAudio Member
 
maty tinman's Avatar
 
Join Date: Apr 2012
Location: Tarragona (Spain)
Default Ramones - Road To Ruin

Ramones - Road To Ruin (1978), Vinyl, Rhino 2011, 180g, Europe

Ramones - Road To Ruin (2011, 180 gram, Vinyl) | Discogs

Click the image to open in full size.

DR Peak RMS Duration Track
--------------------------------------------------------------------------------
DR14 -0.21 dB -16.81 dB 2:41 01-I Just Want To Have Something To Do
DR14 -0.88 dB -17.02 dB 3:20 02-I Wanted Everything
DR14 -1.04 dB -17.07 dB 2:45 03-Don't Come Close
DR14 -0.60 dB -16.28 dB 2:27 04-I Don't Want You
DR15 -0.40 dB -16.68 dB 2:21 05-Needles And Pins
DR13 -1.34 dB -16.69 dB 2:09 06-I'm Against It
DR14 -0.38 dB -16.44 dB 2:30 07-I Wanna Be Sedated
DR13 -0.39 dB -15.68 dB 2:43 08-Go Mental
DR15 -1.76 dB -17.95 dB 3:22 09-Questioningly
DR14 -0.18 dB -15.38 dB 2:13 10-She's The One
DR14 -0.61 dB -17.57 dB 2:25 11-Bad Brain
DR14 -2.20 dB -17.17 dB 2:23 12-It's A Long Way Back
--------------------------------------------------------------------------------

Number of tracks: 12
Official DR value: DR14


CD, 2001

https://www.amazon.com/Road-Ruin-RAMONES/dp/B00005JGAH


Album list - Dynamic Range Database

-> Road To Ruin (40th Anniversary Deluxe Edition) 2018 DR8
__________________
"Comment is free, but facts are sacred" - C. P. Scott *** 40 years of the Spanish Constitution, My musical celebration
  Reply With Quote
Old 18th November 2019, 05:50 PM   #8467
e3k is offline e3k
diyAudio Member
 
e3k's Avatar
 
Join Date: Sep 2010
Location: Earth
attention! flashback incoming.
  Reply With Quote
Old 18th November 2019, 06:28 PM   #8468
maty tinman is offline maty tinman  Spain
diyAudio Member
 
maty tinman's Avatar
 
Join Date: Apr 2012
Location: Tarragona (Spain)
Default Bob Dylan - The Rolling Thunder Revue (The 1975 Live Recordings)

Bob Dylan - The Rolling Thunder Revue (The 1975 Live Recordings) (2019), mono, Columbia, FLAC 24-96

Bob Dylan - The Rolling Thunder Revue (The 1975 Live Recordings) (2019, 24bit 96khz, File) | Discogs

Click the image to open in full size.

DR file too long. Only I copy:

Number of tracks: 148
Official DR value: DR13


CD, 2019

https://www.amazon.com/Rolling-Thund.../dp/B07NHQ1GYY
__________________
"Comment is free, but facts are sacred" - C. P. Scott *** 40 years of the Spanish Constitution, My musical celebration

Last edited by maty tinman; 18th November 2019 at 06:31 PM.
  Reply With Quote
Old 19th November 2019, 10:17 PM   #8469
Soundhappy is offline Soundhappy  France
diyAudio Member
 
Soundhappy's Avatar
 
Join Date: Oct 2012
Location: Montpellier near Mediterranean Sea France
Takashi Kokubo " Dawn of the Forest "

Takashi Kokubo " Sound Journey with the Stream "
__________________
class A amplifiers with full range speakers
sings like angels in heaven
  Reply With Quote
Old 20th November 2019, 06:40 PM   #8470
maty tinman is offline maty tinman  Spain
diyAudio Member
 
maty tinman's Avatar
 
Join Date: Apr 2012
Location: Tarragona (Spain)
Default Jeff Buckley - Dreams Of The Way We Were

Jeff Buckley - Dreams Of The Way We Were (2013), Vinyl, Let Them Eat Vinyl 2014, UK

Jeff Buckley - Dreams Of The Way We Were (2013, CD) | Discogs

Click the image to open in full size.

DR Peak RMS Duration Track
--------------------------------------------------------------------------------
DR9 -0.76 dB -13.07 dB 5:07 01-Lost Highway
DR10 -1.25 dB -12.31 dB 5:00 02-Eternal Life
DR10 -1.19 dB -14.95 dB 3:41 03-Please Send Me Someone To Love
DR9 -1.74 dB -13.01 dB 5:10 04-The Way Young Lovers Do
DR12 -1.38 dB -16.09 dB 8:59 05-interview
DR10 -1.24 dB -14.93 dB 6:07 06-Hallelujah
DR9 -1.25 dB -15.26 dB 3:28 07-Mama, You've Been On My Mind
DR10 -0.76 dB -12.55 dB 4:10 08-Alligator Wine
DR13 -1.12 dB -18.28 dB 1:17 09-Calling You
DR9 -0.98 dB -11.49 dB 5:24 10-Unforgiven
DR10 -0.95 dB -13.81 dB 6:00 11-We All Fall In Love Sometimes
DR8 -0.85 dB -11.64 dB 5:38 12-Curtains
DR9 -1.08 dB -11.98 dB 7:33 13-Dink's Song
DR7 -1.60 dB -11.76 dB 2:37 14-Corpus Christi Carol
--------------------------------------------------------------------------------

Number of tracks: 14
Official DR value: DR10


CD, 2013

https://www.amazon.com/Dreams-Way-We.../dp/B00IXL1J4Y
__________________
"Comment is free, but facts are sacred" - C. P. Scott *** 40 years of the Spanish Constitution, My musical celebration
  Reply With Quote

Reply


Now Playing + What are you listening to?Hide this!Advertise here!
Thread Tools Search this Thread
Search this Thread:

Advanced Search

Posting Rules
You may not post new threads
You may not post replies
You may not post attachments
You may not edit your posts

BB code is On
Smilies are On
[IMG] code is On
HTML code is Off

Forum Jump

Similar Threads
Thread Thread Starter Forum Replies Last Post
Now playing… martyh Analogue Source 2 27th June 2008 03:46 PM
PLaying with ClassD again TroelsM Class D 12 20th February 2008 09:18 AM
Playing with ROMs Zero One Digital Source 0 13th May 2007 01:18 PM
what's better, a mid playing high, or a tweet playing low??? cody6766 Multi-Way 10 20th February 2005 10:40 PM
Aleph 5 playing... Lucas_G Pass Labs 72 11th April 2003 09:08 AM


New To Site? Need Help?

All times are GMT. The time now is 12:25 PM.


Search Engine Optimisation provided by DragonByte SEO (Pro) - vBulletin Mods & Addons Copyright © 2019 DragonByte Technologies Ltd.
Resources saved on this page: MySQL 14.29%
vBulletin Optimisation provided by vB Optimise (Pro) - vBulletin Mods & Addons Copyright © 2019 DragonByte Technologies Ltd.
Copyright ©1999-2019 diyAudio
Wiki