Go Back   Home > Forums > >
Home Forums Rules Articles diyAudio Store Blogs Gallery Wiki Register Donations FAQ Calendar Search Today's Posts Mark Forums Read

Music A place to discuss the thing we are doing all this other stuff for

Now Playing + What are you listening to?
Now Playing + What are you listening to?
Please consider donating to help us continue to serve you.

Ads on/off / Custom Title / More PMs / More album space / Advanced printing & mass image saving
Reply
 
Thread Tools Search this Thread
Old Yesterday, 12:57 AM   #8451
DaveCan is offline DaveCan  Canada
diyAudio Member
 
DaveCan's Avatar
 
Join Date: Nov 2005
Location: Moncton NB
Quote:
Originally Posted by vinylkid58 View Post
And to keep the rockabilly thing going.....

jeff

Here we go

YouTube
  Reply With Quote
Old Yesterday, 06:40 PM   #8452
maty tinman is offline maty tinman  Spain
diyAudio Member
 
maty tinman's Avatar
 
Join Date: Apr 2012
Location: Tarragona (Spain)
Default Waldman, ニterna Chamber Orch - Mozart -Sinfonia Concertante In E-flat Major (K. 364)

Waldman, ニterna Chamber Orchestra - Mozart - Sinfonia Concertante In E-flat Major (K. 364) (1961), Vinyl, Decca Gold Label, US

https://www.discogs.com/Joseph-Fuch...Performing-Mozart-Mozart-Sinfo/master/1359445

Click the image to open in full size.

DR Peak RMS Duration Track
--------------------------------------------------------------------------------
DR13 -0.05 dB -17.56 dB 12:57 01-Sinfonia Concertante In E-flat Major For Violin, Viola And Orchestra (K. 364) - I. Allegro Maestoso
DR13 -2.14 dB -21.44 dB 10:07 02-Sinfonia Concertante In E-flat Major For Violin, Viola And Orchestra (K. 364) - II. Andante
DR13 -0.04 dB -18.36 dB 6:41 03-Sinfonia Concertante In E-flat Major For Violin, Viola And Orchestra (K. 364) - III. Presto
DR12 -4.21 dB -22.23 dB 8:33 04-Adagio In E Major For Violin And Orchestra (K. 261)
DR12 -1.88 dB -18.76 dB 5:35 05-Rondo In C Major For Violin And Orchestra (K. 373)
--------------------------------------------------------------------------------

Number of tracks: 5
Official DR value: DR13


CD ?
__________________
"Comment is free, but facts are sacred" - C. P. Scott *** 40 years of the Spanish Constitution, My musical celebration
  Reply With Quote
Old Yesterday, 07:49 PM   #8453
maty tinman is offline maty tinman  Spain
diyAudio Member
 
maty tinman's Avatar
 
Join Date: Apr 2012
Location: Tarragona (Spain)
Default Pink Floyd - The Dark Side Of The Moon

Pink Floyd - The Dark Side Of The Moon (1973), Vinyl, Pink Floyd Records, Bernie Grundman 2016 Remaster, 180 g, Europe

Pink Floyd - The Dark Side Of The Moon (2016, Gatefold, 180g, Vinyl) | Discogs

Click the image to open in full size.

DR Peak RMS Filename
----------------------------------------------------------------------------------------------

DR11 -3.98 dB -24.39 dB A1 Speak To Me
DR12 -2.39 dB -16.42 dB A2 Breathe (In The Air)
DR11 -1.98 dB -18.23 dB A3 On The Run
DR11 -1.62 dB -15.28 dB A4 Time
DR11 -1.06 dB -17.15 dB A5 The Great Gig In The Sky
DR13 -0.36 dB -16.14 dB B1 Money
DR10 -3.49 dB -18.18 dB B2 Us And Them
DR12 -1.97 dB -15.97 dB B3 Any Colour You Like
DR11 -1.52 dB -17.86 dB B4 Brain Damage
DR10 -1.05 dB -14.26 dB B5 Eclipse
----------------------------------------------------------------------------------------------

Number of files: 10
Official DR value: DR11


CD, 1994

https://www.amazon.com/Dark-Side-Moo.../dp/B000002U82


Album list - Dynamic Range Database
__________________
"Comment is free, but facts are sacred" - C. P. Scott *** 40 years of the Spanish Constitution, My musical celebration
  Reply With Quote
Old Yesterday, 09:10 PM   #8454
maty tinman is offline maty tinman  Spain
diyAudio Member
 
maty tinman's Avatar
 
Join Date: Apr 2012
Location: Tarragona (Spain)
Default McKellar & Boult, Orch Of The Royal Opera House, Covent Garden - Famous Handel Songs

McKellar & Boult, Orchestra Of The Royal Opera House, Covent Garden - Famous Handel Songs And Arias (1961), Vinyl, Decca Records, Australia

https://www.discogs.com/Kenneth-McK...ovent-Garden-Famous-Handel-Son/master/1205530

Click the image to open in full size.

DR Peak RMS Duration Track
覧覧覧覧覧覧覧覧覧覧覧覧覧
DR12 -0.05 dB -18.38 dB 4:25 01-Ombra Mai Fu (from 噌erxes)
DR13 -1.97 dB -18.44 dB 6:30 02-Love In Her Eyes Sits Playing, Air (from Acis And 賎alatea)
DR14 -1.56 dB -19.67 dB 2:40 03-Silent Worship [Did You Not Hear My Lady] (from 善tolemy)
DR14 -1.19 dB -19.85 dB 8:41 04-Recit: Deeper And Deeper Still. Aria: Waft Her, Angels (from 遷ephta)
DR15 -2.01 dB -22.39 dB 7:23 05-Comfort Ye, My People / Every Valley Shall Be Exalted (from 閃essiah)
DR12 -3.60 dB -21.27 dB 4:03 06-Where脱r You Walk (from 全emele)
DR14 -3.59 dB -21.17 dB 7:25 07-Recit: Thanks To My Brethren. Aria: How Vain Is Man (from 遷udas Maccabeus)
DR13 -0.05 dB -18.18 dB 4:04 08-Recit: My Arms Against His Gorgias Will I Go. Aria: Sound An Alarm (from 遷udas Maccabeus)
覧覧覧覧覧覧覧覧覧覧覧覧覧
Number of tracks: 8
Official DR value: DR13


CD 2013

https://www.amazon.co.uk/Kenneth-McK.../dp/B005MAHWWM
__________________
"Comment is free, but facts are sacred" - C. P. Scott *** 40 years of the Spanish Constitution, My musical celebration
  Reply With Quote

Reply


Now Playing + What are you listening to?Hide this!Advertise here!
Thread Tools Search this Thread
Search this Thread:

Advanced Search

Posting Rules
You may not post new threads
You may not post replies
You may not post attachments
You may not edit your posts

BB code is On
Smilies are On
[IMG] code is On
HTML code is Off

Forum Jump

Similar Threads
Thread Thread Starter Forum Replies Last Post
Now playing martyh Analogue Source 2 27th June 2008 03:46 PM
PLaying with ClassD again TroelsM Class D 12 20th February 2008 09:18 AM
Playing with ROMs Zero One Digital Source 0 13th May 2007 01:18 PM
what's better, a mid playing high, or a tweet playing low??? cody6766 Multi-Way 10 20th February 2005 10:40 PM
Aleph 5 playing... Lucas_G Pass Labs 72 11th April 2003 09:08 AM


New To Site? Need Help?

All times are GMT. The time now is 12:48 AM.


Search Engine Optimisation provided by DragonByte SEO (Pro) - vBulletin Mods & Addons Copyright © 2019 DragonByte Technologies Ltd.
Resources saved on this page: MySQL 15.00%
vBulletin Optimisation provided by vB Optimise (Pro) - vBulletin Mods & Addons Copyright © 2019 DragonByte Technologies Ltd.
Copyright ©1999-2019 diyAudio
Wiki