Go Back   Home > Forums > >
Home Forums Rules Articles diyAudio Store Blogs Gallery Wiki Register Donations FAQ Calendar Search Today's Posts Mark Forums Read

Music A place to discuss the thing we are doing all this other stuff for

Now Playing + What are you listening to?
Now Playing + What are you listening to?
Please consider donating to help us continue to serve you.

Ads on/off / Custom Title / More PMs / More album space / Advanced printing & mass image saving
Reply
 
Thread Tools Search this Thread
Old 13th October 2019, 02:30 AM   #8371
DaveCan is offline DaveCan  Canada
diyAudio Member
 
DaveCan's Avatar
 
Join Date: Nov 2005
Location: Moncton NB
Been kind of digging this song that is new to me, and it's not really a style I'd normally be into but the story is cool. Cool song.

YouTube
  Reply With Quote
Old 13th October 2019, 11:00 AM   #8372
maty tinman is offline maty tinman  Spain
diyAudio Member
 
maty tinman's Avatar
 
Join Date: Apr 2012
Location: Tarragona (Spain)
Nathan Milstein, Philharmonic-Symphony Orchestra of New York with Bruno Walter - Mendelssohn Concerto In E Minor For Violin And Orchestra Op. 64 (1948), Vinyl, Columbia Masterworks / Sony, 70th Anniversary Remastered 2018, UK

https://www.discogs.com/Nathan-Mils...-Mendelssohn-Concerto-In-E-M/release/12142142

Click the image to open in full size.

DR Peak RMS Duration Track
--------------------------------------------------------------------------------
DR13 -0.91 dB -18.30 dB 11:12 01-Allegro Molto Appassionato
DR14 -2.46 dB -20.83 dB 7:51 02-Andante
DR14 -0.41 dB -19.16 dB 5:21 03-Allegretto Non Troppo - Allegro Molto Vivace
--------------------------------------------------------------------------------

Number of tracks: 3
Official DR value: DR13
__________________
"Comment is free, but facts are sacred" - C. P. Scott *** 40 years of the Spanish Constitution, My musical celebration
  Reply With Quote
Old 13th October 2019, 11:38 AM   #8373
maty tinman is offline maty tinman  Spain
diyAudio Member
 
maty tinman's Avatar
 
Join Date: Apr 2012
Location: Tarragona (Spain)
Default Dmitri Shostakovich, Riccardo Chailly, Royal Concertgebouw Orchestra - The Jazz-Album

Dmitri Shostakovich, Riccardo Chailly, Royal Concertgebouw Orchestra - The Jazz-Album (1992), Vinyl, Decca 2016, Europe

https://www.discogs.com/Dmitri-Shos...bouw-Orchestra-The-Jazz-Album/release/9344341

Click the image to open in full size.

DR Peak RMS Filename
----------------------------------------------------------------------------------------------

DR12 -6.90 dB -26.79 dB A1 Jazz Suite No. 1 - Waltz
DR11 -9.87 dB -26.03 dB A2 Jazz Suite No. 1 - Polka
DR14 -0.14 dB -20.35 dB A3 Jazz Suite No. 1 - Foxtrot
DR15 -1.60 dB -21.41 dB A4 Piano Concerto No. 1 In C Minor, Op. 35 (Concerto For Piano, Trumpet And Strings) - Allegretto
DR16 -5.64 dB -28.76 dB A5 Piano Concerto No. 1 In C Minor, Op. 35 (Concerto For Piano, Trumpet And Strings) - Lento
DR12 -9.84 dB -26.34 dB A6 Piano Concerto No. 1 In C Minor, Op. 35 (Concerto For Piano, Trumpet And Strings) - Moderato
DR16 -1.62 dB -22.95 dB A7 Piano Concerto No. 1 In C Minor, Op. 35 (Concerto For Piano, Trumpet And Strings) - Allegro Con Brio
DR14 -0.41 dB -17.88 dB B1 Jazz Suite No. 2 (Suite For Promenade Orchestra) - March
DR12 -3.40 dB -20.05 dB B2 Jazz Suite No. 2 (Suite For Promenade Orchestra) - Lyric Waltz
DR13 -1.30 dB -17.72 dB B3 Jazz Suite No. 2 (Suite For Promenade Orchestra) - Dance I
DR14 -1.79 dB -21.05 dB B4 Jazz Suite No. 2 (Suite For Promenade Orchestra) - Waltz I
DR16 -3.06 dB -24.80 dB B5 Jazz Suite No. 2 (Suite For Promenade Orchestra) - Little Polka
DR13 -4.44 dB -21.83 dB B6 Jazz Suite No. 2 (Suite For Promenade Orchestra) - Waltz II
DR16 -6.87 dB -27.91 dB B7 Jazz Suite No. 2 (Suite For Promenade Orchestra) - Dance II
DR14 -2.89 dB -21.03 dB B8 Jazz Suite No. 2 (Suite For Promenade Orchestra) - Finale
DR17 -0.52 dB -29.73 dB B9 Tahiti Trot (Tea For Two)
----------------------------------------------------------------------------------------------

Number of files: 16
Official DR value: DR14


CD, 1993

https://www.amazon.com/Jazz-Album-Dm.../dp/B0000041ZT


BTW, the CD 2008 has the same DR than vinyl, as usual in quality recordings other than commercial music:

Album details - Dynamic Range Database
__________________
"Comment is free, but facts are sacred" - C. P. Scott *** 40 years of the Spanish Constitution, My musical celebration
  Reply With Quote
Old 13th October 2019, 04:57 PM   #8374
maty tinman is offline maty tinman  Spain
diyAudio Member
 
maty tinman's Avatar
 
Join Date: Apr 2012
Location: Tarragona (Spain)
Default Sir Edward - The Power Of Feeling

Sir Edward - The Power Of Feeling (1973), Vinyl, Encounter Records, US

Sir Edward - The Power Of Feeling (1973, Vinyl) | Discogs

Click the image to open in full size.

DR Peak RMS Filename
----------------------------------------------------------------------------------------------

DR12 -0.76 dB -13.86 dB A1 Keep On Moving On
DR12 -0.60 dB -14.41 dB A2 Where Is The Love
DR10 -2.97 dB -15.91 dB A3 People Make The World Go Round
DR12 -1.71 dB -15.77 dB A4 Stocking Cap
DR12 -0.62 dB -14.71 dB B1 Rocky Mount Willie
DR12 -0.68 dB -14.91 dB B2 Betcha By Golly Wow
DR12 -1.21 dB -15.23 dB B3 Peace, K.D.
----------------------------------------------------------------------------------------------

Number of files: 7
Official DR value: DR12


CD, Remastered 2015

https://www.amazon.com/Power-Feeling.../dp/B00R9O509G


Harold Vick - Wikipedia
__________________
"Comment is free, but facts are sacred" - C. P. Scott *** 40 years of the Spanish Constitution, My musical celebration
  Reply With Quote
Old 13th October 2019, 05:43 PM   #8375
maty tinman is offline maty tinman  Spain
diyAudio Member
 
maty tinman's Avatar
 
Join Date: Apr 2012
Location: Tarragona (Spain)
Default Forrester, Haitink, The Concertgebouw Orchestra - Gustav Mahler - Symphony No. 3

Forrester, Haitink, The Concertgebouw Orchestra - Gustav Mahler - Symphony No. 3 (1966), Vinyl x2, Philips, Netherlands

https://www.discogs.com/Mahler-Bern...hester-Amsterdam-Sinfonie-Nr3/release/5959169

Click the image to open in full size.

DR Peak RMS Filename
----------------------------------------------------------------------------------------------

DR15 -0.42 dB -21.48 dB A Symphony No.3 In D Minor - 1. Kraeftig. Entschieden (Beginning)
DR12 -0.49 dB -17.86 dB B1 Symphony No.3 In D Minor - 1. Kraeftig. Entschieden (Conclusion)
DR16 -6.94 dB -29.58 dB B2 Symphony No.3 In D Minor - 2. Tempo Di Menuetto. Sehr Maessig
DR17 -0.84 dB -24.81 dB C1 Symphony No.3 In D Minor - 3. Comodo. Scherzando. Ohne Hast
DR14 -10.13 dB -30.31 dB C2 Symphony No.3 In D Minor - 4. Sehr Iangsam. Misterioso
DR14 -4.04 dB -22.73 dB D1 Symphony No.3 In D Minor - 5. Lustig Im Tempo Und Keck Im Ausdruck
DR13 -0.67 dB -20.22 dB D2 Symphony No.3 In D Minor - 6. Langsam. Ruhevoll. Empfunden
----------------------------------------------------------------------------------------------

Number of files: 7
Official DR value: DR15


CD, Remastered 2006

https://www.amazon.com/Symphony-3-Mahler/dp/B000E8N7QW
__________________
"Comment is free, but facts are sacred" - C. P. Scott *** 40 years of the Spanish Constitution, My musical celebration
  Reply With Quote
Old 14th October 2019, 12:45 AM   #8376
DaveCan is offline DaveCan  Canada
diyAudio Member
 
DaveCan's Avatar
 
Join Date: Nov 2005
Location: Moncton NB
Well after a long day and a few glasses of my fave 1800 Tequila, somehow I found this clown lol, dunno... To me it's actually pretty cool and hilarious as the guy can sing no doubt. My daughter hates clowns ever since she was little and had a sleepover and they watched the movie IT.. I should mail this to her, or not ? Hmmm Muhahaha!

YouTube
  Reply With Quote
Old 14th October 2019, 04:46 AM   #8377
DaveCan is offline DaveCan  Canada
diyAudio Member
 
DaveCan's Avatar
 
Join Date: Nov 2005
Location: Moncton NB
In the 90's it was "more cowbell" lol. I'm thinking more harmonica instead lol

YouTube
  Reply With Quote
Old 14th October 2019, 05:47 PM   #8378
vinylkid58 is offline vinylkid58  Canada
diyAudio Member
 
vinylkid58's Avatar
 
Join Date: May 2005
Location: Victoria, B.C.
Now Playing + What are you listening to?
This:
Attached Images
File Type: jpg Ready_for_Freddie.jpg (15.9 KB, 36 views)
  Reply With Quote
Old 16th October 2019, 01:18 AM   #8379
banat is offline banat  Serbia
diyAudio Member
 
Join Date: Dec 2009
Location: near Belgrade
Tarse P
#DHC125 - Mixed By Tarse P by Deep House Cats - SA | Free Listening on SoundCloud
  Reply With Quote
Old 17th October 2019, 07:10 PM   #8380
HarryY is offline HarryY  United States
diyAudio Member
 
HarryY's Avatar
 
Join Date: Aug 2017
Location: NY
Now Playing + What are you listening to?
The Companion Disk to Led Zeppelins Houses of the Holy.
  Reply With Quote

Reply


Now Playing + What are you listening to?Hide this!Advertise here!
Thread Tools Search this Thread
Search this Thread:

Advanced Search

Posting Rules
You may not post new threads
You may not post replies
You may not post attachments
You may not edit your posts

BB code is On
Smilies are On
[IMG] code is On
HTML code is Off

Forum Jump

Similar Threads
Thread Thread Starter Forum Replies Last Post
Now playing… martyh Analogue Source 2 27th June 2008 03:46 PM
PLaying with ClassD again TroelsM Class D 12 20th February 2008 09:18 AM
Playing with ROMs Zero One Digital Source 0 13th May 2007 01:18 PM
what's better, a mid playing high, or a tweet playing low??? cody6766 Multi-Way 10 20th February 2005 10:40 PM
Aleph 5 playing... Lucas_G Pass Labs 72 11th April 2003 09:08 AM


New To Site? Need Help?

All times are GMT. The time now is 01:22 AM.


Search Engine Optimisation provided by DragonByte SEO (Pro) - vBulletin Mods & Addons Copyright © 2019 DragonByte Technologies Ltd.
Resources saved on this page: MySQL 14.29%
vBulletin Optimisation provided by vB Optimise (Pro) - vBulletin Mods & Addons Copyright © 2019 DragonByte Technologies Ltd.
Copyright ©1999-2019 diyAudio
Wiki