Go Back   Home > Forums > >
Home Forums Rules Articles diyAudio Store Blogs Gallery Wiki Register Donations FAQ Calendar Search Today's Posts Mark Forums Read

Music A place to discuss the thing we are doing all this other stuff for

Now Playing + What are you listening to?
Now Playing + What are you listening to?
Please consider donating to help us continue to serve you.

Ads on/off / Custom Title / More PMs / More album space / Advanced printing & mass image saving
Reply
 
Thread Tools Search this Thread
Old 19th September 2019, 07:41 PM   #8281
maty tinman is offline maty tinman  Spain
diyAudio Member
 
maty tinman's Avatar
 
Join Date: Apr 2012
Location: Tarragona (Spain)
Default The Miles Davis Quintet - Cookin' With The Miles Davis Quintet

The Miles Davis Quintet - Cookin' With The Miles Davis Quintet (1957), CD, Prestige Remastered 1985, Japan

The Miles Davis Quintet - Cookin' With The Miles Davis Quintet (1985, CD) | Discogs

Click the image to open in full size.

DR Peak RMS Duration Track
--------------------------------------------------------------------------------
DR15 -0.54 dB -18.85 dB 6:02 01-My Funny Valentine
DR13 -0.18 dB -16.56 dB 9:59 02-Blues by Five
DR10 -0.36 dB -12.59 dB 4:27 03-Airegin
DR12 -1.18 dB -16.22 dB 13:10 04-Medley - Tune Up - When Lights Are Low
--------------------------------------------------------------------------------

Number of tracks: 4
Official DR value: DR12


CD, 2007 Remastered

https://www.amazon.com/Cookin-Miles-.../dp/B000KP62TS
__________________
"Comment is free, but facts are sacred" - C. P. Scott *** 40 years of the Spanish Constitution, My musical celebration
  Reply With Quote
Old 19th September 2019, 08:18 PM   #8282
maty tinman is offline maty tinman  Spain
diyAudio Member
 
maty tinman's Avatar
 
Join Date: Apr 2012
Location: Tarragona (Spain)
Default Miles Davis Quintet - Workin' With The Miles Davis Quintet

Miles Davis Quintet - Workin' With The Miles Davis Quintet (1959), CD, Prestige Remastered 1985, Japan

Miles Davis Quintet* - Workin' With The Miles Davis Quintet (1985, CD) | Discogs

Click the image to open in full size.

DR Peak RMS Duration Track
--------------------------------------------------------------------------------
DR12 -1.33 dB -17.59 dB 5:26 01-It Never Entered My Mind
DR10 -1.25 dB -14.09 dB 7:15 02-Four
DR13 -1.68 dB -17.78 dB 5:45 03-In Your Own Sweet Way
DR9 -0.94 dB -13.57 dB 2:01 04-The Theme (take 1)
DR10 -1.35 dB -15.21 dB 8:35 05-Trane's Blues
DR16 -0.63 dB -19.53 dB 7:26 06-Ahmad's Blues
DR10 -0.69 dB -13.04 dB 4:48 07-Half Nelson
DR10 -0.05 dB -13.17 dB 1:05 08-The Theme (take 2)
--------------------------------------------------------------------------------

Number of tracks: 8
Official DR value: DR11


CD, 2011 Remastered

https://www.amazon.com/Workin-Miles-.../dp/B000000YGH
__________________
"Comment is free, but facts are sacred" - C. P. Scott *** 40 years of the Spanish Constitution, My musical celebration
  Reply With Quote
Old 20th September 2019, 03:37 PM   #8283
Gyuri is offline Gyuri  Hungary
diyAudio Member
 
Gyuri's Avatar
 
Join Date: Nov 2003
Location: Budapest
Loreena McKennitt - An Ancient Muse (2006, Digipak, CD) | Discogs
__________________
Those who would have deserved the life they are all dead already. "Oh, my dead dears!" - Captain Cat
  Reply With Quote
Old 20th September 2019, 04:42 PM   #8284
Gyuri is offline Gyuri  Hungary
diyAudio Member
 
Gyuri's Avatar
 
Join Date: Nov 2003
Location: Budapest
Loreena McKennitt - The Wind That Shakes The Barley | Discogs
__________________
Those who would have deserved the life they are all dead already. "Oh, my dead dears!" - Captain Cat
  Reply With Quote
Old 20th September 2019, 04:56 PM   #8285
maty tinman is offline maty tinman  Spain
diyAudio Member
 
maty tinman's Avatar
 
Join Date: Apr 2012
Location: Tarragona (Spain)
Default Elmer Bernstein - Staccato

Elmer Bernstein - Staccato (1959), Vinyl, stereo, Capitol Records, US

Elmer Bernstein - Staccato (1959, Vinyl) | Discogs

Click the image to open in full size.

DR Peak RMS Duration Track
--------------------------------------------------------------------------------
DR12 -0.32 dB -15.19 dB 2:55 01-Stacatto's Theme
DR14 -0.15 dB -17.97 dB 2:59 02-Thinking Of Baby
DR12 -2.05 dB -17.77 dB 2:06 03-Poi And Juice
DR12 -2.59 dB -17.61 dB 3:04 04-Night Mood
DR13 -1.03 dB -17.38 dB 2:58 05-Deadly Game
DR12 -2.27 dB -18.22 dB 2:36 06-The Jazz At Waldo's
DR13 -0.82 dB -17.73 dB 2:05 07-Greenwich Village Rumble
DR13 -0.71 dB -19.67 dB 2:19 08-Like Having Fun
DR12 -0.74 dB -17.65 dB 2:53 09-One Before Closing
DR11 -3.38 dB -18.48 dB 3:16 10-Walk A Lonely Street
DR11 -2.28 dB -17.22 dB 2:32 11-MacDougal Street Special
DR12 -1.01 dB -16.11 dB 2:30 12-Pursuit
--------------------------------------------------------------------------------

Number of tracks: 12
Official DR value: DR12


CD, 2008

Elmer Bernstein - Staccato & Paris Swing - Amazon.com Music


Johnny Staccato - Wikipedia
__________________
"Comment is free, but facts are sacred" - C. P. Scott *** 40 years of the Spanish Constitution, My musical celebration
  Reply With Quote
Old 20th September 2019, 05:27 PM   #8286
Gyuri is offline Gyuri  Hungary
diyAudio Member
 
Gyuri's Avatar
 
Join Date: Nov 2003
Location: Budapest
Loreena McKennitt - All Souls Night | Releases | Discogs
__________________
Those who would have deserved the life they are all dead already. "Oh, my dead dears!" - Captain Cat
  Reply With Quote
Old 21st September 2019, 07:47 AM   #8287
maty tinman is offline maty tinman  Spain
diyAudio Member
 
maty tinman's Avatar
 
Join Date: Apr 2012
Location: Tarragona (Spain)
Default Lee Konitz - Konitz Meets Mulligan

Lee Konitz - Konitz Meets Mulligan (1957), Vinyl, mono, Pure Pleasure 2010, US

Konitz* Meets Mulligan* - Konitz Meets Mulligan (2010, Audiophile 180g., Vinyl) | Discogs

Click the image to open in full size.

DR Peak RMS Duration Track
--------------------------------------------------------------------------------
DR14 -4.24 dB -21.03 dB 3:10 01-I Can't Believe That You're In Love With Me
DR12 -4.16 dB -19.19 dB 2:57 02-Broadway
DR13 -4.07 dB -19.34 dB 2:58 03-Almost Like Being In Love
DR13 -3.48 dB -20.19 dB 3:02 04-Sextet
DR13 -2.86 dB -18.56 dB 2:33 05-Oh, Lady Be Good
DR12 -0.51 dB -16.79 dB 3:35 06-Bernie's Tune
DR12 -3.07 dB -18.36 dB 1:57 07-Oh, Lady Be Good (Alternate Version)
DR12 -3.71 dB -18.36 dB 3:47 08-Too Marvelous For Words
DR11 -5.83 dB -19.90 dB 3:08 09-Lover Man
DR13 -2.52 dB -18.26 dB 4:17 10-I'll Remember April
DR12 -1.08 dB -17.23 dB 3:29 11-These Foolish Things
DR12 -5.15 dB -19.77 dB 3:59 12-All The Things You Are
--------------------------------------------------------------------------------

Number of tracks: 12
Official DR value: DR13


CD, 1998

Lee Konitz - Konitz Meets Mulligan - Amazon.com Music
__________________
"Comment is free, but facts are sacred" - C. P. Scott *** 40 years of the Spanish Constitution, My musical celebration
  Reply With Quote
Old 21st September 2019, 10:14 AM   #8288
maty tinman is offline maty tinman  Spain
diyAudio Member
 
maty tinman's Avatar
 
Join Date: Apr 2012
Location: Tarragona (Spain)
Default Anne-Sophie Mutter - Violin Concertos - Tchaikovsky and Korngold

Anne-Sophie Mutter - Violin Concertos - Tchaikovsky and Korngold (2004), SACD, Deutsche Grammophon, Germany

https://www.discogs.com/Anne-Sophie-Mutter-Tchaikovsky-Korngold-André-Previn-Wiener-Philharmoniker-London-Symphony-Orchestr/release/5592828

SA-CD.net - Tchaikovsky, Korngold: Violin Concerto - Mutter

Click the image to open in full size.

DR Peak RMS Duration Track
-------------------------------------------------------------------------------------------------------------------------------------------------------
DR14 -6.05 dB -25.41 dB 18:27 01 Allegro moderato [Violin Concerto in D, Op.35]
DR14 -15.06 dB -34.29 dB 6:58 02 Canzonetta: Andante - attacca: [Violin Concerto in D, Op.35]
DR14 -6.06 dB -25.94 dB 9:33 03 Finale (Allegro vivacissimo) [Violin Concerto in D, Op.35]
DR15 -6.00 dB -25.69 dB 8:39 04 Moderato nobile [Violin Concerto in D major, Op.35 (dedicated to Alma Mahler-Werfel)]
DR15 -10.05 dB -31.39 dB 7:58 05 Romance: Andante [Violin Concerto in D major, Op.35 (dedicated to Alma Mahler-Werfel)]
DR12 -5.98 dB -23.25 dB 7:04 06 Finale: Allegro assai vivace [Violin Concerto in D major, Op.35 (dedicated to Alma Mahler-Werfel)]
-------------------------------------------------------------------------------------------------------------------------------------------------------
Number of tracks: 6
Official DR value: DR14


CD, 2004

Tchaikovsky / Korngold: Violin Concertos by Anne-Sophie Mutter & Wiener Philharmoniker & London Symphony Orchestra & Andre Previn on Amazon Music - Amazon.com


PS: do not waste time and money on this recording. I do not like the interpretation. And the tuning is too high, as usual for decades, looking for spectacularity.

STOP playing.
__________________
"Comment is free, but facts are sacred" - C. P. Scott *** 40 years of the Spanish Constitution, My musical celebration

Last edited by maty tinman; 21st September 2019 at 10:24 AM.
  Reply With Quote
Old 21st September 2019, 11:10 AM   #8289
maty tinman is offline maty tinman  Spain
diyAudio Member
 
maty tinman's Avatar
 
Join Date: Apr 2012
Location: Tarragona (Spain)
Default Art Pepper - The Complete Art Pepper At Ronnie Scott's Club London June (1980)

Art Pepper - The Complete Art Pepper At Ronnie Scott's Club London June (1980), Vinyl 7LP set, Pure Pleasure 2010, World

[URL="https://www.discogs.com/Art-Pepper-The-Complete-Art-Pepper-At-Ronnie-Scotts-Club-London-June-1980/release/6202913"]https://www.discogs.com/Art-Pepper-...-Scotts-Club-London-June-1980/release/6202913[/URL

Click the image to open in full size.

DR Peak RMS Duration Track
--------------------------------------------------------------------------------
DR14 -2.22 dB -20.29 dB 10:52 01-Blues For Blanch
DR14 -3.85 dB -22.41 dB 13:28 02-Ophelia
DR15 -4.68 dB -24.99 dB 17:39 03-Make A List, Make A Wish
DR17 -4.57 dB -26.94 dB 7:39 04-Sad A Little Bit
DR15 -1.64 dB -20.65 dB 6:47 05-Ornithology
DR15 -2.29 dB -19.97 dB 12:38 06-Red Car
DR15 -2.31 dB -22.45 dB 14:11 07-Arthur's Blues
DR15 -3.53 dB -21.86 dB 11:23 08-Untitled #34
DR16 -3.72 dB -25.97 dB 15:14 09-Song For Richard
DR15 -1.63 dB -20.96 dB 10:13 10-Rhythm-a-ning
DR16 -1.94 dB -22.87 dB 7:15 11-Rita-San
DR16 -5.31 dB -26.57 dB 8:02 12-What's New
DR15 -2.32 dB -21.91 dB 14:50 13-I'll Remember April
DR17 -2.62 dB -23.71 dB 11:16 14-True Blues
DR17 -2.60 dB -25.74 dB 13:55 15-Ophelia
DR16 -2.01 dB -23.57 dB 15:00 16-Make A List, Make A Wish
DR18 -3.50 dB -29.24 dB 10:56 17-Stardust
DR16 -1.03 dB -21.57 dB 12:33 18-Red Car
DR18 -3.96 dB -25.71 dB 7:14 19-Straight Life
DR16 -2.98 dB -24.28 dB 13:51 20-Y.I. Blues
DR15 -4.32 dB -23.75 dB 12:40 21-The Trip
DR15 -4.11 dB -22.89 dB 12:12 22-I'll Remember April
DR15 -2.91 dB -23.06 dB 11:37 23-Goodbye
DR15 -4.38 dB -24.53 dB 6:48 24-In A Mellow Tone
DR15 -0.78 dB -20.50 dB 13:57 25-Blues For The Fisherman
--------------------------------------------------------------------------------

Number of tracks: 25
Official DR value: DR16


Only in vinyl.

https://forums.stevehoffman.tv/thre...-recordings-at-ronnie-scotts-on-vinyl.210081/


What a difference with the above, it seemed that the equipment had been damaged. Squeaky sound, disgusting. Now it is a great recording, interpretation, music ... LIVE!
__________________
"Comment is free, but facts are sacred" - C. P. Scott *** 40 years of the Spanish Constitution, My musical celebration
  Reply With Quote
Old 21st September 2019, 06:39 PM   #8290
Gyuri is offline Gyuri  Hungary
diyAudio Member
 
Gyuri's Avatar
 
Join Date: Nov 2003
Location: Budapest
Today for me, Stockfisch Records' Closer To The Music series was on the air.
I really don't know DR values, but Stockfisch made outstanding records.
According to my deaf ears at least.
__________________
Those who would have deserved the life they are all dead already. "Oh, my dead dears!" - Captain Cat
  Reply With Quote

Reply


Now Playing + What are you listening to?Hide this!Advertise here!
Thread Tools Search this Thread
Search this Thread:

Advanced Search

Posting Rules
You may not post new threads
You may not post replies
You may not post attachments
You may not edit your posts

BB code is On
Smilies are On
[IMG] code is On
HTML code is Off

Forum Jump

Similar Threads
Thread Thread Starter Forum Replies Last Post
Now playing… martyh Analogue Source 2 27th June 2008 02:46 PM
PLaying with ClassD again TroelsM Class D 12 20th February 2008 08:18 AM
Playing with ROMs Zero One Digital Source 0 13th May 2007 12:18 PM
what's better, a mid playing high, or a tweet playing low??? cody6766 Multi-Way 10 20th February 2005 09:40 PM
Aleph 5 playing... Lucas_G Pass Labs 72 11th April 2003 08:08 AM


New To Site? Need Help?

All times are GMT. The time now is 12:18 AM.


Search Engine Optimisation provided by DragonByte SEO (Pro) - vBulletin Mods & Addons Copyright © 2019 DragonByte Technologies Ltd.
Resources saved on this page: MySQL 14.29%
vBulletin Optimisation provided by vB Optimise (Pro) - vBulletin Mods & Addons Copyright © 2019 DragonByte Technologies Ltd.
Copyright ©1999-2019 diyAudio
Wiki