Go Back   Home > Forums > >

Music A place to discuss the thing we are doing all this other stuff for

Now Playing + What are you listening to?
Now Playing + What are you listening to?
Please consider donating to help us continue to serve you.

Ads on/off / Custom Title / More PMs / More album space / Advanced printing & mass image saving
Reply
 
Thread Tools
Old 27th June 2019, 10:16 PM   #8091
chrisb is offline chrisb  Canada
diyAudio Member
 
Join Date: Aug 2002
Location: victoria BC
The Thrill is Gone - Her Majesty Aretha - that's her on the piano, BTW

YouTube
__________________
It’s been a slice kids
  Reply With Quote
Old 27th June 2019, 10:48 PM   #8092
Soundhappy is offline Soundhappy  France
diyAudio Member
 
Soundhappy's Avatar
 
Join Date: Oct 2012
Location: Montpellier near Mediterranean Sea France
Osjan - Rozdział II
from the album " Ksiega chmur "
__________________
class A amplifiers with full range speakers
sings like angels in heaven
  Reply With Quote
Old 28th June 2019, 04:36 PM   #8093
maty tinman is offline maty tinman  Spain
diyAudio Member
 
maty tinman's Avatar
 
Join Date: Apr 2012
Location: Tarragona (Spain)
Default Bob Flanigan & John Gray - Togetherness

Bob Flanigan & John Gray - Togetherness (1963), Vinyl, stereo, Capitol Records 1957, US

Bob Flanigan / John Gray - Togetherness (Vinyl, LP, Album, Stereo) | Discogs

Click the image to open in full size.

DR Peak RMS Duration Track
--------------------------------------------------------------------------------
DR12 -1.09 dB -17.08 dB 2:41 01-Togetherness
DR11 -2.75 dB -16.56 dB 2:12 02-If I Were A Bell
DR12 -3.26 dB -19.15 dB 2:33 03-Moanin'
DR12 -0.72 dB -16.06 dB 2:33 04-Coral Reef
DR12 -0.32 dB -15.96 dB 2:35 05-It's A Wonderful World
DR10 -2.46 dB -15.34 dB 1:53 06-Baubles, Bangles And Beads
DR12 -2.17 dB -17.45 dB 2:31 07-A Lot Of Livin' To Do
DR13 -1.94 dB -18.42 dB 3:09 08-J & B Walk
DR12 -2.59 dB -18.12 dB 2:58 09-Walkin'
DR12 -1.67 dB -18.41 dB 2:20 10-Putt-It (How's Your Bird)
DR11 -1.77 dB -16.34 dB 2:19 11-Your Theme
DR11 -2.72 dB -16.89 dB 2:20 12-Work Song
--------------------------------------------------------------------------------

Number of tracks: 12
Official DR value: DR12


CD?
__________________
"Comment is free, but facts are sacred" - C. P. Scott *** 40 years of the Spanish Constitution, My musical celebration
  Reply With Quote
Old 28th June 2019, 04:48 PM   #8094
nigelwright7557 is offline nigelwright7557  United Kingdom
diyAudio Member
 
nigelwright7557's Avatar
 
Join Date: Apr 2008
Location: Carlisle, England
Iron Maiden - Fear of the dark.
Iron Maiden - Speed of light
__________________
2021 versions of PCBCAD51 and PCBCAD720 out now >>> https://www.murtonpikesystems.co.uk
  Reply With Quote
Old 28th June 2019, 05:58 PM   #8095
maty tinman is offline maty tinman  Spain
diyAudio Member
 
maty tinman's Avatar
 
Join Date: Apr 2012
Location: Tarragona (Spain)
Default Jimmy Smith - The Sermon!

Jimmy Smith - The Sermon! (1959), Vinyl, mono, Blue Note, US

Jimmy Smith - The Sermon! (Vinyl, LP, Album, Mono) | Discogs

Click the image to open in full size.

DR Peak RMS Duration Track
--------------------------------------------------------------------------------
DR9 -0.05 dB -11.09 dB 20:20 01-The Sermon (dedicated to Horace Silver)
DR10 -0.04 dB -11.22 dB 12:00 02-J.O.S.
DR10 -1.03 dB -12.83 dB 8:11 03-Flamingo
--------------------------------------------------------------------------------

Number of tracks: 3
Official DR value: DR10


CD, 2000 Remastered

https://www.amazon.com/Sermon-Jimmy-Smith/dp/B00004X0QK
__________________
"Comment is free, but facts are sacred" - C. P. Scott *** 40 years of the Spanish Constitution, My musical celebration
  Reply With Quote
Old 29th June 2019, 04:10 PM   #8096
maty tinman is offline maty tinman  Spain
diyAudio Member
 
maty tinman's Avatar
 
Join Date: Apr 2012
Location: Tarragona (Spain)
Default Fabrizio De Andre - La Buona Novella

Ladies & gentlemen

Fabrizio De André - La Buona Novella (1970), Vinyl, RCA remaster 2017, Italy

Fabrizio De Andre - La Buona Novella (Vinyl, LP, Album, Reissue, Remastered) | Discogs

Click the image to open in full size.

DR Peak RMS Filename
----------------------------------------------------------------------------------------------

DR9 -9.44 dB -22.26 dB A1 Laudate Dominum
DR11 -1.41 dB -15.90 dB A2 L'Infanzia Di Maria
DR12 -1.01 dB -15.09 dB A3 Il Ritorno Di Giuseppe
DR11 -0.44 dB -15.03 dB A4 Il Sogno Di Maria
DR12 -0.59 dB -14.90 dB A5 Ave Maria
DR11 -0.95 dB -15.69 dB B1 Maria Nella Bottega D'Un Falegname
DR12 -0.97 dB -14.85 dB B2 Via Della Croce
DR13 -0.63 dB -16.86 dB B3 Tre Madri
DR12 -0.96 dB -14.37 dB B4 Il Testamento Di Tito
DR13 -2.18 dB -19.03 dB B5 Laudate Hominem
----------------------------------------------------------------------------------------------

Number of files: 10
Official DR value: DR12


CD, 2002

https://www.amazon.it/Buona-Novella-...dp/B0000A9DGM/


[Italian] Fabrizio De Andre - Wikipedia

[Italian] La buona novella - Wikipedia

Fabrizio De Andre - Wikipedia

https://en.wikipedia.org/wiki/La_buona_novella
__________________
"Comment is free, but facts are sacred" - C. P. Scott *** 40 years of the Spanish Constitution, My musical celebration
  Reply With Quote
Old 29th June 2019, 04:20 PM   #8097
nigelwright7557 is offline nigelwright7557  United Kingdom
diyAudio Member
 
nigelwright7557's Avatar
 
Join Date: Apr 2008
Location: Carlisle, England
AC/DC - Hells Bells
__________________
2021 versions of PCBCAD51 and PCBCAD720 out now >>> https://www.murtonpikesystems.co.uk
  Reply With Quote
Old 29th June 2019, 05:02 PM   #8098
chrisb is offline chrisb  Canada
diyAudio Member
 
Join Date: Aug 2002
Location: victoria BC
I'll raise you Thunderstruck - the 2Cellos

YouTube


and for that matter anything by these two zany kids, and the Kitt sisters - Camille and Kennerly
__________________
It’s been a slice kids
  Reply With Quote
Old 29th June 2019, 08:42 PM   #8099
Xoc1 is offline Xoc1  United Kingdom
diyAudio Member
 
Xoc1's Avatar
 
Join Date: Nov 2008
Location: Devon UK
Been streaming Glastonbury Festival for the last 2 days and still tonight & tomorrow to go. Good quaility mix feeds.
5 live soundstages to choose from. Not sure what coverage is available outside of the UK but there's always a VPN!

Glastonbury 2019 - BBC
__________________
OMG my Daughter has gone prog rock!
http://www.strangeredearth.com
  Reply With Quote
Old 30th June 2019, 07:08 PM   #8100
maty tinman is offline maty tinman  Spain
diyAudio Member
 
maty tinman's Avatar
 
Join Date: Apr 2012
Location: Tarragona (Spain)
Default Rachel Portman - Chocolat (Music From The Miramax Motion Picture)

Rachel Portman - Chocolat (Music From The Miramax Motion Picture) (2000), CD, Sony/Miramax, US

Rachel Portman - Chocolat (Music From The Miramax Motion Picture) (CD) | Discogs

Click the image to open in full size.

DR Peak RMS Duration Track
--------------------------------------------------------------------------------
DR13 -3.04 dB -18.62 dB 2:15 01-J.Depp, M.Ross, I.Stoddart / Minor Swing
DR12 -3.19 dB -21.01 dB 3:08 02-David Snell / Main titles
DR13 -2.50 dB -22.62 dB 4:10 03-David Snell / The Story of Grandmere
DR12 -2.12 dB -17.85 dB 1:59 04-David Snell / Vianne sets up shop
DR12 -7.93 dB -27.39 dB 1:03 05-David Snell / Three Women
DR10 -1.97 dB -18.46 dB 1:23 06-David Snell / Vianne confronts the Comte
DR12 -3.32 dB -21.77 dB 1:36 07-David Snell / Other Possibilities
DR9 -13.09 dB -26.01 dB 1:30 08-David Snell / Guillaume's Confession
DR12 -3.78 dB -22.01 dB 2:33 09-David Snell / Passage of Time
DR15 -2.40 dB -23.81 dB 4:40 10-David Snell / Boycott Immorality
DR11 -7.85 dB -21.05 dB 1:29 11-David Snell / Party preparations
DR8 -13.50 dB -25.83 dB 0:49 12-David Snell / Chocolate Sauce
DR13 0.00 dB -18.92 dB 2:39 13-David Snell / Fire
DR10 -4.33 dB -23.52 dB 1:07 14-David Snell / Vianne gazes at the River
DR12 -10.26 dB -26.41 dB 2:15 15-David Snell / Mayan Bowl Breaks
DR14 0.00 dB -20.47 dB 3:10 16-David Snell / Taste of Chocolate
DR12 -2.88 dB -21.07 dB 2:20 17-David Snell / Ashes to the Wind\Roux returns
DR14 -3.07 dB -19.90 dB 3:44 18-J.Depp, M.Ross, I.Stoddart / Caravan
--------------------------------------------------------------------------------

Number of tracks: 18
Official DR value: DR12


CD, 2001

https://www.amazon.com/Chocolat-Orig.../dp/B00138EZEK
__________________
"Comment is free, but facts are sacred" - C. P. Scott *** 40 years of the Spanish Constitution, My musical celebration
  Reply With Quote

Reply


Now Playing + What are you listening to?Hide this!Advertise here!
Thread Tools

Posting Rules
You may not post new threads
You may not post replies
You may not post attachments
You may not edit your posts

BB code is On
Smilies are On
[IMG] code is On
HTML code is Off

Forum Jump

Similar Threads
Thread Thread Starter Forum Replies Last Post
Now playing… martyh Analogue Source 2 27th June 2008 03:46 PM
PLaying with ClassD again TroelsM Class D 12 20th February 2008 09:18 AM
Playing with ROMs Zero One Digital Source 0 13th May 2007 01:18 PM
what's better, a mid playing high, or a tweet playing low??? cody6766 Multi-Way 10 20th February 2005 10:40 PM
Aleph 5 playing... Lucas_G Pass Labs 72 11th April 2003 09:08 AM


New To Site? Need Help?

All times are GMT. The time now is 07:12 PM.


Search Engine Optimisation provided by DragonByte SEO (Pro) - vBulletin Mods & Addons Copyright © 2021 DragonByte Technologies Ltd.
Resources saved on this page: MySQL 15.00%
vBulletin Optimisation provided by vB Optimise (Pro) - vBulletin Mods & Addons Copyright © 2021 DragonByte Technologies Ltd.
Copyright ©1999-2021 diyAudio
Wiki