Go Back   Home > Forums > >
Home Forums Rules Articles diyAudio Store Blogs Gallery Wiki Register Donations FAQ Calendar Search Today's Posts Mark Forums Read

Music A place to discuss the thing we are doing all this other stuff for

Now Playing + What are you listening to?
Now Playing + What are you listening to?
Please consider donating to help us continue to serve you.

Ads on/off / Custom Title / More PMs / More album space / Advanced printing & mass image saving
Reply
 
Thread Tools Search this Thread
Old 25th June 2019, 12:55 AM   #8081
chrisb is offline chrisb
diyAudio Member
 
Join Date: Aug 2002
Location: victoria BC
So should these guys be charged with cruel and unusual punishment of their instruments?
YouTube
__________________
Retired from active DIY

Last edited by chrisb; 25th June 2019 at 01:20 AM.
  Reply With Quote
Old 25th June 2019, 06:30 AM   #8082
RusselYo is offline RusselYo  United States
diyAudio Member
 
Join Date: Jun 2019
Location: USA
Yung gravy - Sensational album
  Reply With Quote
Old 25th June 2019, 03:13 PM   #8083
maty tinman is offline maty tinman  Spain
diyAudio Member
 
maty tinman's Avatar
 
Join Date: Apr 2012
Location: Tarragona (Spain)
Default Olafur Arnalds - Re:Member

Ólafur Arnalds - Re:Member (2018), Vinyl, Mercury KX, Europe

Olafur Arnalds - Re:member (Vinyl, LP, Album) | Discogs

Click the image to open in full size.

DR Peak RMS Duration Track
--------------------------------------------------------------------------------
DR11 -0.42 dB -15.82 dB 6:04 01-Re:member
DR11 -1.42 dB -15.98 dB 3:58 02-Unfold
DR13 -3.89 dB -21.41 dB 2:11 03-Saman
DR13 -2.90 dB -21.67 dB 2:55 04-Brot
DR10 -0.68 dB -15.09 dB 4:31 05-Inconsist
DR12 -4.27 dB -20.51 dB 2:35 06-They Sink
DR11 -0.10 dB -14.16 dB 3:55 07-Ypsilon
DR10 -0.84 dB -17.12 dB 3:17 08-Partial
DR14 -4.61 dB -24.17 dB 2:05 09-Momentary
DR10 -0.86 dB -15.34 dB 6:31 10-Undir
DR11 -1.35 dB -15.73 dB 4:41 11-Ekki Hugsa
DR15 -5.21 dB -24.89 dB 4:14 12-Nyepi
--------------------------------------------------------------------------------

Number of tracks: 12
Official DR value: DR12


CD, 2018

https://www.amazon.com/re-member-Ola.../dp/B07D57FB2W



Olafur Arnalds

Olafur Arnalds - Wikipedia
__________________
"Comment is free, but facts are sacred" - C. P. Scott *** 40 years of the Spanish Constitution, My musical celebration
  Reply With Quote
Old 25th June 2019, 03:37 PM   #8084
photonic is offline photonic
diyAudio Member
 
Join Date: Jan 2013
Crywolf - Cataclasm (2015) on Spotify
  Reply With Quote
Old 25th June 2019, 04:09 PM   #8085
maty tinman is offline maty tinman  Spain
diyAudio Member
 
maty tinman's Avatar
 
Join Date: Apr 2012
Location: Tarragona (Spain)
Default Shakey Jake - Mouth Harp Blues

Shakey Jake - Mouth Harp Blues (1961), Vinyl x2, Prestige Bluesville 2003, 45 RPM, US

Shakey Jake - Mouth Harp Blues (Vinyl, LP, 45 RPM, Limited Edition, Numbered, Reissue, Stereo) | Discogs

Click the image to open in full size.

DR Peak RMS Duration Track
--------------------------------------------------------------------------------
DR14 -0.06 dB -17.20 dB 5:02 01-Mouth Harp Blues
DR12 -1.72 dB -17.51 dB 3:19 02-Love My Baby
DR11 -0.14 dB -14.61 dB 2:09 03-Jake's Cha Cha
DR12 -0.06 dB -16.37 dB 4:29 04-Gimme A Smile
DR11 -0.90 dB -16.11 dB 3:08 05-My Broken Heart
DR11 -0.48 dB -15.24 dB 3:01 06-Angry Love
DR11 -0.03 dB -15.24 dB 2:14 07-Things Is Alright
DR12 -0.09 dB -15.79 dB 4:59 08-Easy Baby
DR12 -0.05 dB -15.60 dB 5:16 09-Things Are Different Baby
DR12 -0.09 dB -16.22 dB 2:15 10-It Won't Happen Again
--------------------------------------------------------------------------------

Number of tracks: 10
Official DR value: DR12


CD, 1993

https://www.amazon.com/Mouth-Harp-Bl...dp/B000000XYZ/


Shakey Jake Harris - Wikipedia
__________________
"Comment is free, but facts are sacred" - C. P. Scott *** 40 years of the Spanish Constitution, My musical celebration
  Reply With Quote
Old 25th June 2019, 04:58 PM   #8086
maty tinman is offline maty tinman  Spain
diyAudio Member
 
maty tinman's Avatar
 
Join Date: Apr 2012
Location: Tarragona (Spain)
Default Philip Glass - Solo Piano

Philip Glass - Solo Piano (1989), Vinyl, Music On Vinyl Classical/Sony 2014, Europe

Philip Glass - Solo Piano (Vinyl, LP, Album, Reissue) | Discogs

Click the image to open in full size.

DR Peak RMS Duration Track
--------------------------------------------------------------------------------
DR16 -3.37 dB -24.48 dB 5:43 01-Metamorphosis One
DR13 -5.78 dB -23.43 dB 7:21 02-Metamorphosis Two
DR12 -2.70 dB -19.15 dB 5:32 03-Metamorphosis Three
DR13 -0.02 dB -17.62 dB 7:02 04-Metamorphosis Four
DR13 -7.92 dB -25.81 dB 5:07 05-Metamorphosis Five
DR13 -0.16 dB -19.00 dB 13:48 06-Mad Rush
DR12 -3.53 dB -20.47 dB 6:57 07-Wichita Sutra Vortex
--------------------------------------------------------------------------------

Number of tracks: 7
Official DR value: DR13


CD, 1989

https://www.amazon.com/Philip-Glass-.../dp/B0000026Y4


Philip Glass

Philip Glass - Wikipedia
__________________
"Comment is free, but facts are sacred" - C. P. Scott *** 40 years of the Spanish Constitution, My musical celebration
  Reply With Quote
Old 25th June 2019, 06:08 PM   #8087
maty tinman is offline maty tinman  Spain
diyAudio Member
 
maty tinman's Avatar
 
Join Date: Apr 2012
Location: Tarragona (Spain)
Default The Incredible Jimmy Smith - Featuring Kenny Burrell & Grady Tate

The Incredible Jimmy Smith - Featuring Kenny Burrell & Grady Tate - Organ Grinder Swing (1965), Vinyl, Verve Records, Germany

Jimmy Smith Featuring Kenny Burrell And Grady Tate - Organ Grinder Swing (Vinyl, LP, Album) | Discogs

Click the image to open in full size.

DR Peak RMS Filename
----------------------------------------------------------------------------------------------

DR13 -0.83 dB -15.54 dB A1 The Organ Grinder's Swing
DR14 -0.87 dB -19.36 dB A2 Oh, No, Babe
DR12 -1.66 dB -16.03 dB A3 Blues For J
DR12 -0.49 dB -13.39 dB B1 Greensleeves
DR12 -2.48 dB -18.58 dB B2 I'll Close My Eyes
DR12 -0.81 dB -14.59 dB B3 Satin Doll
----------------------------------------------------------------------------------------------

Number of files: 6
Official DR value: DR12


CD, 2000

https://www.amazon.com/Organ-Grinder.../dp/B000050J5Z


Jimmy Smith (musician) - Wikipedia
__________________
"Comment is free, but facts are sacred" - C. P. Scott *** 40 years of the Spanish Constitution, My musical celebration
  Reply With Quote
Old Yesterday, 08:07 PM   #8088
Soundhappy is offline Soundhappy  France
diyAudio Member
 
Soundhappy's Avatar
 
Join Date: Oct 2012
Location: Montpellier near Mediterranean Sea France
Daniel Freedman " Codex "

and full album " Imagine That "
__________________
class A amplifiers with full range speakers
sings like angels in heaven
  Reply With Quote
Old Yesterday, 08:27 PM   #8089
Soundhappy is offline Soundhappy  France
diyAudio Member
 
Soundhappy's Avatar
 
Join Date: Oct 2012
Location: Montpellier near Mediterranean Sea France
Daniel Freedman All Brothers 2017
__________________
class A amplifiers with full range speakers
sings like angels in heaven
  Reply With Quote

Reply


Now Playing + What are you listening to?Hide this!Advertise here!
Thread Tools Search this Thread
Search this Thread:

Advanced Search

Posting Rules
You may not post new threads
You may not post replies
You may not post attachments
You may not edit your posts

BB code is On
Smilies are On
[IMG] code is On
HTML code is Off

Forum Jump

Similar Threads
Thread Thread Starter Forum Replies Last Post
Now playing… martyh Analogue Source 2 27th June 2008 02:46 PM
PLaying with ClassD again TroelsM Class D 12 20th February 2008 08:18 AM
Playing with ROMs Zero One Digital Source 0 13th May 2007 12:18 PM
what's better, a mid playing high, or a tweet playing low??? cody6766 Multi-Way 10 20th February 2005 09:40 PM
Aleph 5 playing... Lucas_G Pass Labs 72 11th April 2003 08:08 AM


New To Site? Need Help?

All times are GMT. The time now is 12:34 PM.


Search Engine Optimisation provided by DragonByte SEO (Pro) - vBulletin Mods & Addons Copyright © 2019 DragonByte Technologies Ltd.
Resources saved on this page: MySQL 15.00%
vBulletin Optimisation provided by vB Optimise (Pro) - vBulletin Mods & Addons Copyright © 2019 DragonByte Technologies Ltd.
Copyright ©1999-2019 diyAudio
Wiki