Go Back   Home > Forums > >
Home Forums Rules Articles diyAudio Store Blogs Gallery Wiki Register Donations FAQ Calendar Search Today's Posts Mark Forums Read

Music A place to discuss the thing we are doing all this other stuff for

Now Playing + What are you listening to?
Now Playing + What are you listening to?
Please consider donating to help us continue to serve you.

Ads on/off / Custom Title / More PMs / More album space / Advanced printing & mass image saving
Reply
 
Thread Tools Search this Thread
Old Yesterday, 04:54 AM   #8031
HollowState is offline HollowState  United States
diyAudio Member
 
HollowState's Avatar
 
Join Date: Aug 2006
Location: Taxland, New Jersey
I'll See You In My Dreams with Rossano Sportiello and Stephanie Trick playing some nice stride piano. I've been digging several of their videos for the past couple of hours.
Attached Images
File Type: jpg StephanieTrick001.jpg (158.5 KB, 22 views)
__________________
"At the heart of quantum mechanics is a rule that sometimes governs politicians or CEOs - as long as no one is watching, anything goes." ~ Lawrence Krauss
  Reply With Quote
Old Yesterday, 04:51 PM   #8032
maty tinman is offline maty tinman  Spain
diyAudio Member
 
maty tinman's Avatar
 
Join Date: Apr 2012
Location: Tarragona (Spain)
Default Eric Bibb - A Selection of analogue Eric Bibb

Eric Bibb - A Selection of analogue Eric Bibb (2013) (Opus 3) [DSD128]

DSD File | A Selection of analogue Eric Bibb

Click the image to open in full size.

DR Peak RMS Duration Track
--------------------------------------------------------------------------------
DR12 -6.56 dB -21.07 dB 3:52 01-Lonesome valley
DR13 -7.84 dB -24.22 dB 2:17 02-Blacksmith island
DR14 -6.02 dB -22.93 dB 6:53 03-Don´t ever let nobody run your spirit down
DR17 -7.43 dB -30.14 dB 4:43 04-Going home
DR14 -7.36 dB -23.17 dB 3:19 05-Good Stuff
DR13 -7.20 dB -25.14 dB 2:39 06-Home in that rock
DR14 -7.10 dB -23.81 dB 2:47 07-I wanna bee ready
DR15 -7.60 dB -28.03 dB 4:12 08-I want Jesus to walk with me
DR16 -5.26 dB -26.24 dB 4:44 09-In my fathers house
DR17 -6.71 dB -28.63 dB 2:51 10-Look over yonder
DR13 -5.50 dB -21.82 dB 4:05 11-Meetin´ at the building
DR16 -6.98 dB -26.13 dB 5:13 12-Needed time
DR13 -6.22 dB -21.68 dB 4:31 13-Nothin´ like you used to do
DR12 -8.51 dB -24.12 dB 3:33 14-Shingle By Shingle
DR14 -9.13 dB -25.83 dB 5:28 15-Tell ol´Bill
DR15 -6.71 dB -26.52 dB 5:10 16-That´s why I am here
DR14 -7.21 dB -24.96 dB 4:28 17-Where thee green grass grows
DR14 -6.65 dB -22.69 dB 3:59 18-Wrapped up in her arms
--------------------------------------------------------------------------------

Number of tracks: 18
Official DR value: DR14


Eric Bibb - Official website

Eric Bibb - Wikipedia
__________________
"Comment is free, but facts are sacred" - C. P. Scott *** 40 years of the Spanish Constitution, My musical celebration

Last edited by maty tinman; Yesterday at 04:55 PM.
  Reply With Quote
Old Yesterday, 06:20 PM   #8033
maty tinman is offline maty tinman  Spain
diyAudio Member
 
maty tinman's Avatar
 
Join Date: Apr 2012
Location: Tarragona (Spain)
Default George Fenton - Dangerous Beauty Soundtrack

George Fenton - Dangerous Beauty Soundtrack (1998), CD, Restless Records, US

George Fenton - Dangerous Beauty Soundtrack (CD, Album) | Discogs

Click the image to open in full size.

DR Peak RMS Duration Track
--------------------------------------------------------------------------------
DR12 -5.59 dB -22.46 dB 2:34 01-Venice Proud And Pretty
DR12 -0.10 dB -16.59 dB 2:23 02-Marco's Homecoming
DR11 -0.88 dB -19.06 dB 1:59 03-The First Kiss (Veronica's Theme)
DR13 -5.19 dB -26.63 dB 2:01 04-I Cannot Marry You
DR11 -9.94 dB -24.90 dB 1:43 05-Mother's Advice
DR12 -0.10 dB -19.98 dB 3:17 06-Job Training/The Library
DR11 -2.77 dB -19.25 dB 2:17 07-Warning To The Idea
DR12 -0.10 dB -17.95 dB 3:19 08-First Poetry Duel
DR11 -1.64 dB -20.35 dB 1:44 09-Ramberti
DR10 -3.05 dB -19.66 dB 1:25 10-Who's Next?
DR12 -0.10 dB -16.64 dB 1:34 11-Veronica's Ascent
DR11 -0.10 dB -18.18 dB 1:48 12-Marco Will Marry
DR12 0.00 dB -17.48 dB 4:47 13-Second Poetry Duel
DR11 -0.68 dB -16.36 dB 2:35 14-Veronica And Marco
DR11 -3.50 dB -19.97 dB 2:33 15-News Of War
DR11 -1.73 dB -19.59 dB 2:03 16-The Lodge
DR12 -0.10 dB -18.22 dB 4:16 17-The King Of France
DR11 -0.91 dB -17.28 dB 2:49 18-Marco Goes The War
DR13 -0.10 dB -18.69 dB 7:52 19-The Plague/Veronica's Arrest
DR10 0.00 dB -15.68 dB 1:28 20-Imprisonment Part One
DR11 -0.10 dB -17.26 dB 1:32 21-Imprisonment Part Two
DR11 -5.83 dB -23.82 dB 2:16 22-Veronica Confesses
DR12 -0.29 dB -18.89 dB 3:18 23-I Stand Alone For Venice And This Woman
DR11 -0.10 dB -16.05 dB 5:37 24-The Verdict/End Titles
--------------------------------------------------------------------------------

Number of tracks: 24
Official DR value: DR11


CD, 1998

https://www.amazon.co.uk/Dangerous-B.../dp/B00FZ0OXNA

George Fenton, George Fenton - Dangerous Beauty: Original Motion Picture Score - Amazon.com Music


George Fenton - Wikipedia
__________________
"Comment is free, but facts are sacred" - C. P. Scott *** 40 years of the Spanish Constitution, My musical celebration
  Reply With Quote
Old Yesterday, 06:24 PM   #8034
Bicicletta is offline Bicicletta  Europe
diyAudio Member
 
Join Date: Nov 2018
Location: Genova (Italy)
Eschenbach - Mozart, Piano Sonata K.282 in E Flat Major - III Allegro
  Reply With Quote
Old Yesterday, 07:33 PM   #8035
maty tinman is offline maty tinman  Spain
diyAudio Member
 
maty tinman's Avatar
 
Join Date: Apr 2012
Location: Tarragona (Spain)
Beautiful music. I have been listening to it for many years and I'm not tired of it.

By the way, I had not fully optimized the Win 10 for multimedia. I just did it and I listen to the last track, 24. The Verdict/End Titles, again and what a difference! The recording seems different.
__________________
"Comment is free, but facts are sacred" - C. P. Scott *** 40 years of the Spanish Constitution, My musical celebration
  Reply With Quote
Old Yesterday, 08:00 PM   #8036
maty tinman is offline maty tinman  Spain
diyAudio Member
 
maty tinman's Avatar
 
Join Date: Apr 2012
Location: Tarragona (Spain)
Default Elton John - Goodbye Yellow Brick Road - SuperDisk

Elton John - Goodbye Yellow Brick Road (1973), Vinyl x2, MCA Records, Super Disk 1980, US

Elton John - Goodbye Yellow Brick Road (Vinyl, LP, Album, Reissue) | Discogs

Click the image to open in full size.

DR Peak RMS Duration Track
--------------------------------------------------------------------------------
DR12 -0.70 dB -15.94 dB 11:07 01-Funeral For A Friend/Love Lies Bleeding
DR11 -2.13 dB -16.63 dB 3:49 02-Candle In The Wind
DR13 -1.49 dB -17.15 dB 5:20 03-Bennie And The Jets
DR13 -0.70 dB -17.65 dB 3:15 04-Goodbye Yellow Brick Road
DR11 -2.25 dB -17.94 dB 2:22 05-This Song Has No Title
DR12 -1.66 dB -17.02 dB 4:00 06-Grey Seal
DR13 -1.54 dB -16.78 dB 3:38 07-Jamaica Jerk-Off
DR14 -0.87 dB -18.42 dB 5:59 08-I've Seen That Movie Too
DR14 -1.01 dB -17.59 dB 3:54 09-Sweet Painted Lady
DR11 -3.16 dB -18.21 dB 4:22 10-The Ballad Of Danny Bailey (1909-34)
DR14 -1.10 dB -17.79 dB 5:02 11-Dirty Little Girl
DR12 -1.58 dB -18.55 dB 5:08 12-All The Girls Love Alice
DR11 -1.84 dB -17.33 dB 2:43 13-Your Sister Can't Twist (But She Can Rock 'n Roll)
DR13 -1.98 dB -17.13 dB 4:54 14-Saturday Night's Alright For Fighting
DR12 -2.42 dB -17.71 dB 4:08 15-Roy Rogers
DR13 -0.70 dB -17.05 dB 3:42 16-Social Disease
DR12 -3.38 dB -19.03 dB 2:47 17-Harmony
--------------------------------------------------------------------------------

Number of tracks: 17
Official DR value: DR13


CD, 2011

ELTON JOHN - Goodbye Yellow Brick Road - Amazon.com Music
__________________
"Comment is free, but facts are sacred" - C. P. Scott *** 40 years of the Spanish Constitution, My musical celebration

Last edited by maty tinman; Yesterday at 08:09 PM.
  Reply With Quote
Old Yesterday, 08:07 PM   #8037
maty tinman is offline maty tinman  Spain
diyAudio Member
 
maty tinman's Avatar
 
Join Date: Apr 2012
Location: Tarragona (Spain)
Spanish 1973 edition... the best sound!

Now Playing + What are you listening to?

Elton John - Goodbye Yellow Brick Road (Vinyl, LP, Album) | Discogs

DR Peak RMS Duration Track
--------------------------------------------------------------------------------
DR13 0.00 dB -15.94 dB 11:12 A1 Funeral For A Friend
DR12 -0.26 dB -16.63 dB 3:52 A2 Candle In The Wind
DR12 -1.83 dB -16.16 dB 5:26 A3 Bennie And The Jets
DR12 0.00 dB -17.18 dB 3:14 B1 Goodbye Yellow Brick Road
DR11 -1.48 dB -16.81 dB 2:24 B2 This Song Has No Title
DR12 -0.79 dB -16.64 dB 4:02 B3 Grey Seal
DR13 -0.46 dB -15.67 dB 3:41 B4 Jamaica Jerk-Off
DR13 -0.52 dB -16.92 dB 6:02 B5 I've Seen That Movie Too
DR15 0.00 dB -16.91 dB 3:55 C1 Sweet Painted Lady
DR13 0.00 dB -15.74 dB 4:25 C2 The Ballad Of Danny Bailey (1909-34)
DR14 0.00 dB -15.99 dB 5:04 C3 Dirty Little Girl
DR12 -0.96 dB -16.61 dB 5:12 C4 All The Girls Love Alice
DR12 0.00 dB -14.54 dB 2:43 D1 Your Sister Can't Twist (But She Can Rock 'N' Roll)
DR13 -0.80 dB -15.61 dB 4:58 D2 Saturday Night's Alright For Fighting
DR12 -0.38 dB -16.11 dB 4:10 D3 Roy Rogers
DR13 -0.45 dB -16.72 dB 3:46 D4 Social Disease
DR12 -0.65 dB -15.95 dB 2:48 D5 Harmony
--------------------------------------------------------------------------------

Number of tracks: 17
Official DR value: DR13


MFSL 1984 reissue

Elton John - Goodbye Yellow Brick Road (Vinyl, LP, Album, Reissue, Remastered, Limited Edition, Numbered) | Discogs

DR Peak RMS Filename
----------------------------------------------------------------------------------------------

DR13 -1.26 dB -17.89 dB 01 Funeral For A Friend _ Love Lies Bleeding
DR13 -2.58 dB -18.65 dB 02 Candle In The Wind
DR13 -3.68 dB -19.21 dB 03 Bennie And The Jets.
DR14 -0.78 dB -18.73 dB 04 Goodbye Yellow Brick Road
DR11 -4.16 dB -19.34 dB 05 This Song Has No Title
DR13 -0.70 dB -17.68 dB 06 Grey Seal
DR13 -3.15 dB -18.31 dB 07 Jamaica Jerk-Off
DR14 -2.41 dB -19.72 dB 08 I've Seen That Movie Too
DR15 -2.16 dB -19.81 dB 09 Sweet Painted Lady
DR13 -1.40 dB -17.39 dB 10 The Ballad Of Danny Bailey (1909-34)
DR14 -0.92 dB -17.65 dB 11 Dirty Little Girl
DR13 -1.84 dB -19.34 dB 12 All The Girls Love Alice
DR13 -1.06 dB -15.98 dB 13 Your Sister Can't Twist (But She Can Rock 'n' Roll)
DR13 -1.20 dB -16.99 dB 14 Saturday Night's Alright For Fighting
DR13 -2.11 dB -17.60 dB 15 Roy Rogers
DR14 -0.61 dB -16.90 dB 16 Social Disease
DR13 -3.27 dB -19.04 dB 17 Harmony
----------------------------------------------------------------------------------------------

Number of files: 17
Official DR value: DR13
__________________
"Comment is free, but facts are sacred" - C. P. Scott *** 40 years of the Spanish Constitution, My musical celebration

Last edited by maty tinman; Yesterday at 08:15 PM.
  Reply With Quote

Reply


Now Playing + What are you listening to?Hide this!Advertise here!
Thread Tools Search this Thread
Search this Thread:

Advanced Search

Posting Rules
You may not post new threads
You may not post replies
You may not post attachments
You may not edit your posts

BB code is On
Smilies are On
[IMG] code is On
HTML code is Off

Forum Jump

Similar Threads
Thread Thread Starter Forum Replies Last Post
Now playing… martyh Analogue Source 2 27th June 2008 02:46 PM
PLaying with ClassD again TroelsM Class D 12 20th February 2008 08:18 AM
Playing with ROMs Zero One Digital Source 0 13th May 2007 12:18 PM
what's better, a mid playing high, or a tweet playing low??? cody6766 Multi-Way 10 20th February 2005 09:40 PM
Aleph 5 playing... Lucas_G Pass Labs 72 11th April 2003 08:08 AM


New To Site? Need Help?

All times are GMT. The time now is 03:35 AM.


Search Engine Optimisation provided by DragonByte SEO (Pro) - vBulletin Mods & Addons Copyright © 2019 DragonByte Technologies Ltd.
Resources saved on this page: MySQL 15.00%
vBulletin Optimisation provided by vB Optimise (Pro) - vBulletin Mods & Addons Copyright © 2019 DragonByte Technologies Ltd.
Copyright ©1999-2019 diyAudio
Wiki