Go Back   Home > Forums > >
Home Forums Rules Articles diyAudio Store Blogs Gallery Wiki Register Donations FAQ Calendar Search Today's Posts Mark Forums Read

Music A place to discuss the thing we are doing all this other stuff for

Now Playing + What are you listening to?
Now Playing + What are you listening to?
Please consider donating to help us continue to serve you.

Ads on/off / Custom Title / More PMs / More album space / Advanced printing & mass image saving
Reply
 
Thread Tools Search this Thread
Old 21st May 2019, 11:29 PM   #7861
mountainman bob is offline mountainman bob  United States
diyAudio Member
 
mountainman bob's Avatar
 
Join Date: Feb 2019
Location: FL Panhandle
This
Attached Images
File Type: png PNG image.png (165.3 KB, 51 views)
  Reply With Quote
Old 21st May 2019, 11:42 PM   #7862
Drummer2005 is offline Drummer2005  United States
diyAudio Member
 
Join Date: Jun 2018
Location: Indy
Behold Electric Guitar: YouTube

Paul's newest. I love this. Glenn.
  Reply With Quote
Old 22nd May 2019, 04:52 PM   #7863
maty tinman is offline maty tinman  Spain
diyAudio Member
 
maty tinman's Avatar
 
Join Date: Apr 2012
Location: Tarragona (Spain)
Default Solti, Chicago SO - Ravel, Debussy - Bolero, La Mer, Prelude A L'Apres Midi D'Un Faun

Georg Solti, Chicago Symphony Orchestra - Ravel, Debussy - Bolero, La Mer, Prelude A L'Apres Midi D'Un Faune (1977), Vinyl, Decca, Germany

Georg Solti, Maurice Ravel, Claude Debussy, The Chicago Symphony Orchestra - Georg Solti Dirigiert (Vinyl, LP, Club Edition, Stereo) | Discogs

Click the image to open in full size.

DR Peak RMS Filename
----------------------------------------------------------------------------------------------

DR15 -0.87 dB -21.40 dB A1 Ravel - Bolero
DR15 -0.73 dB -22.88 dB A2 Debussy - La Mer - De L'Aube A Midi Sur La Mer
DR15 -1.17 dB -22.49 dB B1 Debussy - La Mer - Jeux De Vagues
DR14 -0.25 dB -19.96 dB B2 Debussy - La Mer - Dialogue Du Vent Et De La Mer
DR15 -2.65 dB -24.46 dB B3 Debussy - Prelude A L'apres-Midi D'un Faune
----------------------------------------------------------------------------------------------

Number of files: 5
Official DR value: DR15


CD ?
__________________
"Comment is free, but facts are sacred" - C. P. Scott *** 40 years of the Spanish Constitution, My musical celebration
  Reply With Quote
Old 22nd May 2019, 06:04 PM   #7864
maty tinman is offline maty tinman  Spain
diyAudio Member
 
maty tinman's Avatar
 
Join Date: Apr 2012
Location: Tarragona (Spain)
Default Jennifer Warnes - Jennifer Warnes

Jennifer Warnes - Jennifer Warnes (1976), Vinyl, Arista Records, Spain

Jennifer Warnes - Jennifer Warnes (Vinyl, LP, Album) | Discogs

Jennifer Warnes - Jennifer Warnes - Amazon.com Music

Click the image to open in full size.

DR Peak RMS Duration Track
--------------------------------------------------------------------------------
DR12 -0.70 dB -17.65 dB 3:21 A1 Love Hurts
DR13 -0.48 dB -18.42 dB 4:42 A2 Round And Round
DR13 0.00 dB -16.77 dB 4:13 A3 Shine A Light
DR11 -1.91 dB -20.47 dB 4:22 A4 You're The One
DR13 0.00 dB -18.64 dB 3:30 A5 I'm Dreaming
DR10 -5.52 dB -19.42 dB 2:12 B1 Mama
DR13 -1.29 dB -17.47 dB 2:57 B2 Right Time Of The Night
DR12 -1.17 dB -16.60 dB 4:29 B3 Bring Ol' Maggie Back Home
DR12 -1.88 dB -16.19 dB 2:58 B4 Don't Lead Me On
DR12 -1.34 dB -17.27 dB 4:55 B5 Daddy Don't Go
DR10 -4.57 dB -17.77 dB 1:09 B6 O God Of Loveliness (O Bello Dio Del Paradiso)
--------------------------------------------------------------------------------

Number of tracks: 11
Official DR value: DR12


CD ?


Jennifer Warnes - Wikipedia
__________________
"Comment is free, but facts are sacred" - C. P. Scott *** 40 years of the Spanish Constitution, My musical celebration
  Reply With Quote
Old 22nd May 2019, 06:18 PM   #7865
bonjonno is offline bonjonno  United States
diyAudio Member
 
Join Date: Jun 2005
Location: Rapid City
Steve Gadd Band Freedom Jazz Dance
  Reply With Quote
Old 22nd May 2019, 08:05 PM   #7866
jerryo is offline jerryo  Isle of Man
diyAudio Member
 
Join Date: Jun 2007
Just recently bought the album ‘Sounds of China’ featuring ‘Zhao Cong’ on the Pipa from an American supplier on eBay.
Listening to it right now. Really like it as it’s a new sound that I have not heard before. Good sound quality as well. Definitely recommend it.
  Reply With Quote
Old 23rd May 2019, 12:04 AM   #7867
AstroZon is offline AstroZon  United States
diyAudio Member
 
AstroZon's Avatar
 
Join Date: Nov 2013
Location: Zama
Some Japanese shoegaze compilation on YouTube. The Best Shoegaze/Dream Pop Songs From Japan - Vol. 2

Three songs from this compilation that I like:
1. My Dead Girlfriend - Watashi no Aishita Manatsu no Shinigami
2. Oeil - Owl Moon (Shadow)
6. Ether Feels - She's Wanderlust

Ether Feels sound remarkably like Asobi Seksu, a New York shoegaze band with a Japanese singer (not the same singer though.)
  Reply With Quote
Old 23rd May 2019, 01:59 PM   #7868
mountainman bob is offline mountainman bob  United States
diyAudio Member
 
mountainman bob's Avatar
 
Join Date: Feb 2019
Location: FL Panhandle
When SRV introduces ‘the best guitar player’ that’s sayin sumthin!
Lonnie Mack and Stevie Ray YouTube
  Reply With Quote
Old 23rd May 2019, 04:12 PM   #7869
maty tinman is offline maty tinman  Spain
diyAudio Member
 
maty tinman's Avatar
 
Join Date: Apr 2012
Location: Tarragona (Spain)
Default Seefried, Rothenberger, Hoffman, Cluytens, Vienna P - Humperdinck - Hansel Und Gretel

Irmgard Seefried, Anneliese Rothenberger, Grace Hoffman & André Cluytens, Vienna PO - Engelbert Humperdinck - Hänsel Und Gretel (1964), Vinyl, stereo, Angel Records, Germany

Engelbert Humperdinck, Irmgard Seefried, Anneliese Rothenberger, Grace Hoffman, Elisabeth Hongen, Walter Berry, Liselotte Maikl, Andre Cluytens - Hansel Und Gretel (Vinyl, LP, Mono) | Discogs

Click the image to open in full size.

DR Peak RMS Duration Track
--------------------------------------------------------------------------------
DR13 -6.53 dB -23.82 dB 3:08 01-Love Hurts
DR15 -5.85 dB -25.65 dB 4:25 02-Round And Round
DR11 -10.07 dB -24.77 dB 4:01 03-Shine A Light
DR12 -4.21 dB -23.04 dB 4:08 04-You're The One
DR13 -6.04 dB -23.13 dB 3:30 05-I'm Dreaming
DR12 -9.88 dB -25.45 dB 1:59 06-Mama
DR11 -8.00 dB -21.84 dB 2:49 07-Right Time Of The Night
DR14 -6.66 dB -24.98 dB 4:11 08-Bring Ol' Maggie Back Home
DR13 -8.41 dB -24.44 dB 2:45 09-Don't Lead Me On
DR14 -7.14 dB -24.60 dB 4:37 10-Daddy Don't Go
DR12 -7.58 dB -22.31 dB 1:00 11-O God Of Loveliness
--------------------------------------------------------------------------------

Number of tracks: 11
Official DR value: DR13



CD, 1990

Irmgard Seefried, Anneliese Rothenberger, Walter Berry, Elisabeth Hongen, Humperdinck, Andre Cluytens - Humperdinck: Hansel Und Gretel - Amazon.com Music


[German] Hansel und Gretel (Oper) – Wikipedia

Hansel and Gretel (opera) - Wikipedia
__________________
"Comment is free, but facts are sacred" - C. P. Scott *** 40 years of the Spanish Constitution, My musical celebration

Last edited by maty tinman; 23rd May 2019 at 04:16 PM.
  Reply With Quote
Old 23rd May 2019, 05:45 PM   #7870
maty tinman is offline maty tinman  Spain
diyAudio Member
 
maty tinman's Avatar
 
Join Date: Apr 2012
Location: Tarragona (Spain)
The correct DR

DR Peak RMS Filename
----------------------------------------------------------------------------------------------

DR13 -0.55 dB -17.90 dB A Overture and Act I (Beginning)
DR13 -0.62 dB -18.49 dB B Act I (Conclusion) and Act II (Beginning)
DR13 -0.49 dB -17.86 dB C Act II (Conclusion) and Act III (Beginning)
DR13 -0.40 dB -17.66 dB D Act III (Conclusion)
----------------------------------------------------------------------------------------------

Number of files: 4
Official DR value: DR13
__________________
"Comment is free, but facts are sacred" - C. P. Scott *** 40 years of the Spanish Constitution, My musical celebration
  Reply With Quote

Reply


Now Playing + What are you listening to?Hide this!Advertise here!
Thread Tools Search this Thread
Search this Thread:

Advanced Search

Posting Rules
You may not post new threads
You may not post replies
You may not post attachments
You may not edit your posts

BB code is On
Smilies are On
[IMG] code is On
HTML code is Off

Forum Jump

Similar Threads
Thread Thread Starter Forum Replies Last Post
Now playing… martyh Analogue Source 2 27th June 2008 02:46 PM
PLaying with ClassD again TroelsM Class D 12 20th February 2008 08:18 AM
Playing with ROMs Zero One Digital Source 0 13th May 2007 12:18 PM
what's better, a mid playing high, or a tweet playing low??? cody6766 Multi-Way 10 20th February 2005 09:40 PM
Aleph 5 playing... Lucas_G Pass Labs 72 11th April 2003 08:08 AM


New To Site? Need Help?

All times are GMT. The time now is 06:27 AM.


Search Engine Optimisation provided by DragonByte SEO (Pro) - vBulletin Mods & Addons Copyright © 2019 DragonByte Technologies Ltd.
Resources saved on this page: MySQL 14.29%
vBulletin Optimisation provided by vB Optimise (Pro) - vBulletin Mods & Addons Copyright © 2019 DragonByte Technologies Ltd.
Copyright ©1999-2019 diyAudio
Wiki