Go Back   Home > Forums > >
Home Forums Rules Articles diyAudio Store Blogs Gallery Wiki Register Donations FAQ Calendar Search Today's Posts Mark Forums Read

Music A place to discuss the thing we are doing all this other stuff for

Now Playing + What are you listening to?
Now Playing + What are you listening to?
Please consider donating to help us continue to serve you.

Ads on/off / Custom Title / More PMs / More album space / Advanced printing & mass image saving
Reply
 
Thread Tools Search this Thread
Old 18th May 2019, 05:37 PM   #7821
maty tinman is offline maty tinman  Spain
diyAudio Member
 
maty tinman's Avatar
 
Join Date: Apr 2012
Location: Tarragona (Spain)
Default Fela Anikulapo Kuti - Shuffering And Shmiling

Fela Anikulapo Kuti - Shuffering And Shmiling (1978), Vinyl, Celluloid 1985, US

Fela Kuti With Africa 70 - Shuffering And Shmiling (Vinyl, LP, Album) | Discogs

Click the image to open in full size.

DR Peak RMS Duration Track
--------------------------------------------------------------------------------
DR14 -0.10 dB -15.90 dB 9:42 A-Shuffering And Shmiling (Instrumental)
DR13 -0.10 dB -16.54 dB 12:07 B-Shuffering And Shmiling (Vocal)
--------------------------------------------------------------------------------

Number of tracks: 2
Official DR value: DR13


CD, 2013

Shuffering And Shmiling by Fela Kuti on Amazon Music - Amazon.com


Fela Kuti - Wikipedia

Shuffering and Shmiling - Fela Kuti | Songs, Reviews, Credits | AllMusic
__________________
"Comment is free, but facts are sacred" - C. P. Scott *** 40 years of the Spanish Constitution, My musical celebration
  Reply With Quote
Old 18th May 2019, 05:40 PM   #7822
daqvin_carter is offline daqvin_carter  United States
diyAudio Member
 
Join Date: Apr 2007
Location: Denver CO US
Jimmy McGriff - The Dream Team
  Reply With Quote
Old 18th May 2019, 06:27 PM   #7823
mountainman bob is online now mountainman bob  United States
diyAudio Member
 
mountainman bob's Avatar
 
Join Date: Feb 2019
Location: FL Panhandle
This
Attached Images
File Type: png PNG image.png (158.7 KB, 34 views)
  Reply With Quote
Old 19th May 2019, 10:05 AM   #7824
maty tinman is offline maty tinman  Spain
diyAudio Member
 
maty tinman's Avatar
 
Join Date: Apr 2012
Location: Tarragona (Spain)
Default Cesaria Evora - Cafe Atlantico

Cesaria Evora - Caf Atlantico (1999), CD, Lusafrica, France

Cesaria Evora - Cafe Atlantico (CD, Album) | Discogs

Click the image to open in full size.

DR Peak RMS Duration Track
--------------------------------------------------------------------------------
DR9 0.00 dB -10.19 dB 4:13 01-Flor di nha esperanca
DR8 0.00 dB -9.40 dB 4:45 02-Vaquinha mansa
DR8 0.00 dB -9.84 dB 4:05 03-Amor di mundo
DR9 0.00 dB -11.00 dB 3:55 04-Paraiso di atlantico
DR8 0.00 dB -9.62 dB 3:47 05-Sorte
DR9 0.00 dB -10.91 dB 3:48 06-Carnaval de sao vicente
DR10 0.00 dB -12.43 dB 5:36 07-Desilusao dum amdjer
DR10 0.00 dB -10.90 dB 3:44 08-Nho antone escaderode
DR10 0.00 dB -11.75 dB 3:57 09-Beijo de longe
DR9 0.00 dB -11.55 dB 4:09 10-Roma criola
DR9 0.00 dB -10.78 dB 4:50 11-Perseguida
DR11 0.00 dB -12.53 dB 3:29 12-Maria Elena
DR10 0.00 dB -11.03 dB 4:00 13-Cabo verde manda mantenha
DR9 0.00 dB -10.36 dB 3:24 14-Terezinha
DR10 -0.82 dB -13.44 dB 4:28 15-Doce guerra
DR10 -0.17 dB -12.64 dB 4:35 16-Papa Joahim Paris
DR8 -0.54 dB -10.57 dB 3:36 17-Mar azul
DR9 -0.05 dB -9.95 dB 2:38 18-Pe di boi
DR9 -0.18 dB -10.92 dB 4:54 19-Besame mucho
--------------------------------------------------------------------------------

Number of tracks: 19
Official DR value: DR9


CD, 1999

Cesaria Evora - Cafe Atlantico - Amazon.com Music


[Portugus] Cesaria Evora – Wikipedia, a enciclopedia livre

Cesaria Evora - Wikipedia
__________________
"Comment is free, but facts are sacred" - C. P. Scott *** 40 years of the Spanish Constitution, My musical celebration
  Reply With Quote
Old 19th May 2019, 11:02 AM   #7825
maty tinman is offline maty tinman  Spain
diyAudio Member
 
maty tinman's Avatar
 
Join Date: Apr 2012
Location: Tarragona (Spain)
Doce guerra

Cesaria Evora – Doce Guerra Lyrics | Genius Lyrics

Oi Cabo Verde
B qu' nha dor mas sublime
Oi Cabo Verde
B qu' nh'angustia nha paixao
Nha vida nasc
Dum desafio di b clima ingrato
Vontade ferro p na nha peito
Gosto pa luta p na nhas braos
B qu' nha guerra nha doce amor

Oi Cabo Verde
B qu' nha dor mas sublime
Oi Cabo Verde
B qu' nh'angustia nha paixao
Nha vida nasc
Dum desafio di b clima ingrato
Vontade ferro p na nha peito
Gosto pa luta p na nhas braos
B qu' nha guerra nha doce amor

Estend bs braos
B toma' nha sangue
B rega' b tchom
B flori

Pa' terra-longe
Bem caba' pa ns
B cu mar cu e bs fidjos
Num doce abrao di paz

Ai naquel dia di festa
'M qu r cola' sanjom na Picos
'M qu'r batuco
Na rebera de Juliao

Vulcao na praia de Santa Maria
Vale di Paul na Boavista
Morna de nh Eugnio
Na nh San Nicolau

Ai naquel dia di festa
'M qu r cola' sanjom na Picos
'M qu'r batuco
Na rebera de Juliao

Vulcao na praia de Santa Maria
Vale di Paul na Boavista
Morna de nh Eugnio
Na nh San Nicolau

...

Ai naquel dia di festa
'M qu r cola' sanjom na Picos
'M qu'r batuco
Na rebera de Juliao

Vulcao na praia de Santa Maria
Vale di Paul na Boavista
Morna de nh Eugnio
Na nh San Nicolau

Vulcao na praia de Santa Maria
Vale di Paul na Boavista
Morna de nh Eugnio
Na nh San Nicolau
__________________
"Comment is free, but facts are sacred" - C. P. Scott *** 40 years of the Spanish Constitution, My musical celebration
  Reply With Quote
Old 19th May 2019, 12:03 PM   #7826
knockbill is offline knockbill  United States
diyAudio Member
 
knockbill's Avatar
 
Join Date: Feb 2013
Location: SE PA
Journeyman,,, Eric Clapton...
__________________
Regards,
John
  Reply With Quote
Old 19th May 2019, 12:50 PM   #7827
Bicicletta is offline Bicicletta  Europe
diyAudio Member
 
Join Date: Nov 2018
Location: Genova (Italy)
Adiemus (Karl Jenkins)
  Reply With Quote
Old 19th May 2019, 01:08 PM   #7828
tamra is offline tamra  Japan
diyAudio Member
 
Join Date: Jan 2017
Location: Tokyo
Now Playing + What are you listening to?
Susana Baca
YouTube
Attached Images
File Type: jpg 618Xv1MEo7L._SX466_.jpg (26.9 KB, 21 views)
  Reply With Quote
Old 19th May 2019, 01:37 PM   #7829
tamra is offline tamra  Japan
diyAudio Member
 
Join Date: Jan 2017
Location: Tokyo
Now Playing + What are you listening to?
Ikue Asazaki
YouTube
Attached Images
File Type: jpg 776687_3L.jpg (23.9 KB, 19 views)
  Reply With Quote
Old 19th May 2019, 01:40 PM   #7830
soundbrigade is offline soundbrigade  Sweden
diyAudio Member
 
soundbrigade's Avatar
 
Join Date: Feb 2006
Location: Vaenersborg, Sweden
Send a message via MSN to soundbrigade
Quote:
Originally Posted by Bicicletta View Post
Karl Jenkins like in Soft Machine?! Very unexpected.
__________________
/Magnus
Due to economical cutbacks, the light at the end of the tunnel has to be switched off.
  Reply With Quote

Reply


Now Playing + What are you listening to?Hide this!Advertise here!
Thread Tools Search this Thread
Search this Thread:

Advanced Search

Posting Rules
You may not post new threads
You may not post replies
You may not post attachments
You may not edit your posts

BB code is On
Smilies are On
[IMG] code is On
HTML code is Off

Forum Jump

Similar Threads
Thread Thread Starter Forum Replies Last Post
Now playing martyh Analogue Source 2 27th June 2008 02:46 PM
PLaying with ClassD again TroelsM Class D 12 20th February 2008 08:18 AM
Playing with ROMs Zero One Digital Source 0 13th May 2007 12:18 PM
what's better, a mid playing high, or a tweet playing low??? cody6766 Multi-Way 10 20th February 2005 09:40 PM
Aleph 5 playing... Lucas_G Pass Labs 72 11th April 2003 08:08 AM


New To Site? Need Help?

All times are GMT. The time now is 09:07 PM.


Search Engine Optimisation provided by DragonByte SEO (Pro) - vBulletin Mods & Addons Copyright © 2019 DragonByte Technologies Ltd.
Resources saved on this page: MySQL 14.29%
vBulletin Optimisation provided by vB Optimise (Pro) - vBulletin Mods & Addons Copyright © 2019 DragonByte Technologies Ltd.
Copyright ©1999-2019 diyAudio
Wiki