Go Back   Home > Forums > >
Home Forums Rules Articles diyAudio Store Blogs Gallery Wiki Register Donations FAQ Calendar Search Today's Posts Mark Forums Read

Music A place to discuss the thing we are doing all this other stuff for

Now Playing + What are you listening to?
Now Playing + What are you listening to?
Please consider donating to help us continue to serve you.

Ads on/off / Custom Title / More PMs / More album space / Advanced printing & mass image saving
Reply
 
Thread Tools Search this Thread
Old 21st February 2019, 08:26 PM   #7431
Bicicletta is offline Bicicletta  Europe
diyAudio Member
 
Join Date: Nov 2018
Location: Genova (Italy)
Mina - Oggi sono io (YouTube)
  Reply With Quote
Old 22nd February 2019, 10:57 AM   #7432
Bicicletta is offline Bicicletta  Europe
diyAudio Member
 
Join Date: Nov 2018
Location: Genova (Italy)
Irish Rovers Finnegan's Wake
  Reply With Quote
Old 22nd February 2019, 02:43 PM   #7433
Hestia Towler is offline Hestia Towler  United States
diyAudio Member
 
Hestia Towler's Avatar
 
Join Date: Feb 2019
Rammstein - Sonne (Official Video)
  Reply With Quote
Old 22nd February 2019, 06:14 PM   #7434
Bicicletta is offline Bicicletta  Europe
diyAudio Member
 
Join Date: Nov 2018
Location: Genova (Italy)
Tomorrow at Teatro Carlo Felice - Genova

Paolo Conte - Sparring Partner (YouTube)

(YEAH)
  Reply With Quote
Old 23rd February 2019, 05:56 AM   #7435
soundchaser001 is offline soundchaser001  Canada
diyAudio Member
 
soundchaser001's Avatar
 
Join Date: Oct 2007
Location: Kanata
Yessongs; all six sides on Japanese vinyl (bought by me in 1986 at Sam the Record Man)

Amazing!
  Reply With Quote
Old 23rd February 2019, 06:02 AM   #7436
blakkshepeaudio is offline blakkshepeaudio  Australia
diyAudio Member
 
blakkshepeaudio's Avatar
 
Join Date: Sep 2010
Location: Country Victoria Australia
"Living in a mirror" by Leon Berger. Criminally underrated Russian / Australian composer/performer/producer from 80's Australia. Unbelievable that there is so little info about him on the web. This album is worth chasing down.
  Reply With Quote
Old 23rd February 2019, 04:42 PM   #7437
maty tinman is offline maty tinman  Spain
diyAudio Member
 
maty tinman's Avatar
 
Join Date: Apr 2012
Location: Tarragona (Spain)
Default Baker, King, Haitink, Concertgebouw-Orchester - Mahler‎ - Das Lied Von Der Erde

Baker, King, Haitink, Concertgebouw-Orchester - Mahler‎ - Das Lied Von Der Erde (1975), Vinyl, Philips, Netherlands

Gustav Mahler - Janet Baker / James King, Concertgebouworkest, Bernard Haitink - Das Lied Von Der Erde (Vinyl, LP) | Discogs

Click the image to open in full size.

DR Peak RMS Filename
----------------------------------------------------------------------------------------------

DR12 -0.93 dB -17.75 dB A1 Das Trinklied Vom Jammer Der Erde
DR15 -3.09 dB -24.87 dB A2 Der Einsame Im Herbst
DR13 -8.53 dB -25.98 dB A3 Von Der Jugend
DR14 -0.59 dB -21.51 dB A4 Von Der Schoenheit
DR12 -1.82 dB -19.47 dB B1 Der Trunkene Im Fruehling
DR14 -1.04 dB -21.76 dB B2 Der Abschied
----------------------------------------------------------------------------------------------

Number of files: 6
Official DR value: DR13


CD, 1991

Janet Baker, James King, Gustav Mahler, Bernard Haitink, Concertgebouw Orchestra - Mahler: Das Lied von der Erde - Amazon.com Music


PS: from yesterday I have more clean mains. The music had not sounded so good in my second system. Verified with my reference recordings
__________________
"Comment is free, but facts are sacred" - C. P. Scott *** 40 years of the Spanish Constitution, My musical celebration

Last edited by maty tinman; 23rd February 2019 at 04:47 PM.
  Reply With Quote
Old 23rd February 2019, 04:50 PM   #7438
zgtc is offline zgtc  Europe
diyAudio Member
 
zgtc's Avatar
 
Join Date: Nov 2016
Location: Barcelona
Now Playing + What are you listening to?
Distance Over Time by Dream Theater. Not their best album, but quite good.
  Reply With Quote
Old 23rd February 2019, 04:51 PM   #7439
soundbrigade is offline soundbrigade  Sweden
diyAudio Member
 
soundbrigade's Avatar
 
Join Date: Feb 2006
Location: Vaenersborg, Sweden
Send a message via MSN to soundbrigade
This is, as I get it, the last of studio album from Renaissance:

Click the image to open in full size.

No-one sings like Annie Haslam.
__________________
/Magnus
Due to economical cutbacks, the light at the end of the tunnel has to be switched off.
  Reply With Quote
Old 23rd February 2019, 05:13 PM   #7440
HollowState is offline HollowState  United States
diyAudio Member
 
HollowState's Avatar
 
Join Date: Aug 2006
Location: Taxland, New Jersey
Quote:
Originally Posted by soundbrigade View Post
No-one sings like Annie Haslam.
Agreed - except for maybe Salyu. They both have a great upper register that they clearly belt out.
__________________
"At the heart of quantum mechanics is a rule that sometimes governs politicians or CEOs - as long as no one is watching, anything goes." ~ Lawrence Krauss

Last edited by HollowState; 23rd February 2019 at 05:17 PM.
  Reply With Quote

Reply


Now Playing + What are you listening to?Hide this!Advertise here!
Thread Tools Search this Thread
Search this Thread:

Advanced Search

Posting Rules
You may not post new threads
You may not post replies
You may not post attachments
You may not edit your posts

BB code is On
Smilies are On
[IMG] code is On
HTML code is Off

Forum Jump

Similar Threads
Thread Thread Starter Forum Replies Last Post
Now playing… martyh Analogue Source 2 27th June 2008 02:46 PM
PLaying with ClassD again TroelsM Class D 12 20th February 2008 08:18 AM
Playing with ROMs Zero One Digital Source 0 13th May 2007 12:18 PM
what's better, a mid playing high, or a tweet playing low??? cody6766 Multi-Way 10 20th February 2005 09:40 PM
Aleph 5 playing... Lucas_G Pass Labs 72 11th April 2003 08:08 AM


New To Site? Need Help?

All times are GMT. The time now is 10:33 PM.


Search Engine Optimisation provided by DragonByte SEO (Pro) - vBulletin Mods & Addons Copyright © 2019 DragonByte Technologies Ltd.
Resources saved on this page: MySQL 14.29%
vBulletin Optimisation provided by vB Optimise (Pro) - vBulletin Mods & Addons Copyright © 2019 DragonByte Technologies Ltd.
Copyright ©1999-2019 diyAudio
Wiki