Go Back   Home > Forums > >
Home Forums Rules Articles diyAudio Store Blogs Gallery Wiki Register Donations FAQ Calendar Search Today's Posts Mark Forums Read

Music A place to discuss the thing we are doing all this other stuff for

Now Playing + What are you listening to?
Now Playing + What are you listening to?
Please consider donating to help us continue to serve you.

Ads on/off / Custom Title / More PMs / More album space / Advanced printing & mass image saving
Reply
 
Thread Tools Search this Thread
Old 17th January 2019, 10:18 PM   #7261
maty tinman is offline maty tinman  Spain
diyAudio Member
 
maty tinman's Avatar
 
Join Date: Apr 2012
Location: Tarragona (Spain)
I live in Spain. I listen to music at the evenings and nights. I do not see TV, or almost. I usually do other things while listening to music unless it excites me.
__________________
"Comment is free, but facts are sacred" - C. P. Scott *** 40 years of the Spanish Constitution, My musical celebration
  Reply With Quote
Old Yesterday, 02:20 PM   #7262
soundbrigade is offline soundbrigade  Sweden
diyAudio Member
 
soundbrigade's Avatar
 
Join Date: Feb 2006
Location: Vaenersborg, Sweden
Send a message via MSN to soundbrigade
Click the image to open in full size.
__________________
/Magnus
Due to economical cutbacks, the light at the end of the tunnel has to be switched off.
  Reply With Quote
Old Yesterday, 03:25 PM   #7263
Soundhappy is offline Soundhappy  France
diyAudio Member
 
Soundhappy's Avatar
 
Join Date: Oct 2012
Location: Montpellier near Mediterranean Sea France
__________________
class A amplifiers with full range speakers
sings like angels in heaven
  Reply With Quote
Old Yesterday, 04:06 PM   #7264
soundbrigade is offline soundbrigade  Sweden
diyAudio Member
 
soundbrigade's Avatar
 
Join Date: Feb 2006
Location: Vaenersborg, Sweden
Send a message via MSN to soundbrigade
Click the image to open in full size.
__________________
/Magnus
Due to economical cutbacks, the light at the end of the tunnel has to be switched off.
  Reply With Quote
Old Yesterday, 06:27 PM   #7265
maty tinman is offline maty tinman  Spain
diyAudio Member
 
maty tinman's Avatar
 
Join Date: Apr 2012
Location: Tarragona (Spain)
Default Frager/Leibowitz - Prokofieff- Piano Concerto No. 2

Ladies & gentlemen

Frager & Leibowitz, Paris Conservatoire O - Prokofieff- Piano Concerto No. 2 (1960), Vinyl, RCA/Classic Records 1998, 180gr, US

Sergei Prokofiev / Joseph Haydn, Malcolm Frager, Orchestre De La Societe Des Concerts Du Conservatoire, Rene Leibowitz - Concerto No. 2 (Vinyl, LP, Reissue) | Discogs

Click the image to open in full size.

DR Peak RMS Filename
----------------------------------------------------------------------------------------------

DR13 -1.42 dB -19.22 dB A1 Prokofieff - Piano Concerto No. 2 In G, Op. 16 - I. Andantino
DR14 -4.16 dB -20.73 dB A2 Prokofieff - Piano Concerto No. 2 In G, Op. 16 - II. Scherzo- Vivace
DR12 -0.26 dB -16.98 dB A3 Prokofieff - Piano Concerto No. 2 In G, Op. 16 - III. Allegro Moderato
DR13 -0.51 dB -18.72 dB B1 Prokofieff - Piano Concerto No. 2 In G, Op. 16 - IV. Finale- Allegro Tempestoso
DR12 -5.06 dB -21.67 dB B2 Haydn - Piano Sonata No. 35 In E Flat
----------------------------------------------------------------------------------------------

Number of files: 5
Official DR value: DR13


No CD


Classical Candor: Prokofiev: Piano Concertos 2 & 3 (HQCD review)
__________________
"Comment is free, but facts are sacred" - C. P. Scott *** 40 years of the Spanish Constitution, My musical celebration

Last edited by maty tinman; Yesterday at 06:31 PM.
  Reply With Quote
Old Yesterday, 08:06 PM   #7266
maty tinman is offline maty tinman  Spain
diyAudio Member
 
maty tinman's Avatar
 
Join Date: Apr 2012
Location: Tarragona (Spain)
Default Yello - Toy

Yello - Toy (2016), Vinyl, Polydor, 180gr, EU

Yello - Toy (Vinyl, LP, Album) | Discogs

Click the image to open in full size.

DR Peak RMS Filename
----------------------------------------------------------------------------------------------

DR11 -3.49 dB -19.90 dB A1 Frautonium Intro
DR15 -0.58 dB -17.21 dB A2 Limbo
DR14 -0.88 dB -16.87 dB A3 30'000 Days
DR15 -0.55 dB -17.46 dB A4 Electrified II
DR14 -1.35 dB -17.81 dB A5 Cold Flame
DR17 -0.68 dB -21.38 dB B1 Kiss The Cloud
DR16 -1.26 dB -18.49 dB B2 Starlight Scene
DR17 -0.42 dB -19.20 dB B3 Tool Of Love
DR13 -1.94 dB -17.03 dB B4 Give You The World
DR16 -1.12 dB -19.37 dB B5 Dialectical Kid
DR15 -1.24 dB -19.50 dB C1 Dark Side
DR15 -1.96 dB -20.53 dB C2 Pacific AM
DR14 -2.41 dB -19.95 dB C3 Blue Biscuit
DR16 -0.16 dB -18.73 dB C4 Lost in Motion
DR15 -1.92 dB -19.75 dB D1 Magma
DR14 -0.68 dB -16.96 dB D2 Toy Square
DR12 -2.65 dB -18.97 dB D3 Frautonium
----------------------------------------------------------------------------------------------

Number of files: 17
Official DR value: DR15


CD, 2016

YELLO - Toy: Deluxe - Amazon.com Music

Yello: Toy [CD] - Yello: Amazon.de: Musik


Album list - Dynamic Range Database
__________________
"Comment is free, but facts are sacred" - C. P. Scott *** 40 years of the Spanish Constitution, My musical celebration

Last edited by maty tinman; Yesterday at 08:09 PM.
  Reply With Quote
Old Yesterday, 10:05 PM   #7267
Bicicletta is offline Bicicletta
diyAudio Member
 
Join Date: Nov 2018
Location: Genova (Italy)
YouTube [yeah]
  Reply With Quote
Old Yesterday, 11:25 PM   #7268
Bettybrown is offline Bettybrown  Norway
diyAudio Member
 
Join Date: Jan 2018
Location: Sandnes
Saxxon, devil rides out
  Reply With Quote

Reply


Now Playing + What are you listening to?Hide this!Advertise here!
Thread Tools Search this Thread
Search this Thread:

Advanced Search

Posting Rules
You may not post new threads
You may not post replies
You may not post attachments
You may not edit your posts

BB code is On
Smilies are On
[IMG] code is On
HTML code is Off

Forum Jump

Similar Threads
Thread Thread Starter Forum Replies Last Post
Now playing… martyh Analogue Source 2 27th June 2008 03:46 PM
PLaying with ClassD again TroelsM Class D 12 20th February 2008 09:18 AM
Playing with ROMs Zero One Digital Source 0 13th May 2007 01:18 PM
what's better, a mid playing high, or a tweet playing low??? cody6766 Multi-Way 10 20th February 2005 10:40 PM
Aleph 5 playing... Lucas_G Pass Labs 72 11th April 2003 09:08 AM


New To Site? Need Help?

All times are GMT. The time now is 03:00 AM.


Search Engine Optimisation provided by DragonByte SEO (Pro) - vBulletin Mods & Addons Copyright © 2019 DragonByte Technologies Ltd.
Resources saved on this page: MySQL 15.00%
vBulletin Optimisation provided by vB Optimise (Pro) - vBulletin Mods & Addons Copyright © 2019 DragonByte Technologies Ltd.
Copyright ©1999-2019 diyAudio
Wiki