Go Back   Home > Forums > >
Home Forums Rules Articles diyAudio Store Blogs Gallery Wiki Register Donations FAQ Calendar Search Today's Posts Mark Forums Read

Music A place to discuss the thing we are doing all this other stuff for

Now Playing + What are you listening to?
Now Playing + What are you listening to?
Please consider donating to help us continue to serve you.

Ads on/off / Custom Title / More PMs / More album space / Advanced printing & mass image saving
Reply
 
Thread Tools Search this Thread
Old 11th December 2018, 09:54 PM   #6961
maty tinman is offline maty tinman  Spain
diyAudio Member
 
maty tinman's Avatar
 
Join Date: Apr 2012
Location: Tarragona (Spain)
Here, Harmonia Mundi is taken advantage of the best SACD technology, compared to vinyl. An Editorial that focuses on quality in the recordings, which are common in the majority of those that edit classical, baroque or jazz.

But, the commercial/popular music is very mistreated, regardless of the support used. There are exceptions, such as the discography of the Rolling Stones or Creedence Clearwater Revival, which sound much better in the SACD Japanese editions than in any other support that I have heard.

In the end it is the usual, leaving technology aside, what is really important is the love for a job well done, the pursuit of excellence.
__________________
"Comment is free, but facts are sacred" - C. P. Scott *** 40 years of the Spanish Constitution, My musical celebration
  Reply With Quote
Old Yesterday, 04:41 PM   #6962
maty tinman is offline maty tinman  Spain
diyAudio Member
 
maty tinman's Avatar
 
Join Date: Apr 2012
Location: Tarragona (Spain)
Default Narciso Yepes - Musica Catalana

Other treasure.

Narciso Yepes - Música Catalana (1973), Vinyl, Deutsche Grammophon, Germany

Narciso Yepes - Musica Catalana (Vinyl, LP) | Discogs

Click the image to open in full size.

DR Peak RMS Filename
----------------------------------------------------------------------------------------------

DR13 -7.01 dB -24.97 dB A4 Llobet - El mestre.wav
DR14 -10.00 dB -26.70 dB A1 Segovia - El noi de la mare.wav
DR12 -6.89 dB -24.02 dB A2 Llobet - La filla del marxant.wav
DR11 -7.31 dB -21.89 dB A3 Llobet - La filadora.wav
DR12 -8.77 dB -25.93 dB A5 Llobet - La canco del lladre.wav
DR15 -1.66 dB -19.37 dB A6 Casanovas - La gata i el belitre.wav
DR15 -2.76 dB -22.65 dB A7 Mompou - Canco i danca No13.wav
DR11 -8.04 dB -24.01 dB B1 Yepes - Catarina d'Alio.wav
DR12 -8.51 dB -24.67 dB B2 Yepes - Montaynes del Canigou.wav
DR15 -2.38 dB -21.90 dB B3 Espla - Levantina No2.wav
DR15 -3.86 dB -23.38 dB B4 Espla - Levantina No5.wav
DR12 -5.94 dB -19.79 dB B5 Espla - Levantina No6.wav
DR15 -3.91 dB -22.29 dB B6 Asencio - La serenou.wav
DR13 -2.24 dB -19.98 dB B7 Asencio - La joja.wav
DR14 -7.73 dB -26.75 dB B8 Asencio - La calma.wav
DR14 -0.76 dB -20.05 dB B9 Asencio - La gaubanca.wav
DR15 -1.78 dB -21.35 dB B10 Asencio - La frisanca.wav
----------------------------------------------------------------------------------------------

Number of files: 17
Official DR value: DR13

Only vinyl, CD, SACD? nope, like a lot of vinyls.


[Spanish] Narciso Yepes - Wikipedia, la enciclopedia libre

Narciso Yepes - Wikipedia

Quote:
After 1964, Yepes used the ten-string guitar exclusively, touring all six inhabited continents, performing in recitals as well as with the world's leading orchestras, giving an average of 130 performances each year. He recorded the Concierto de Aranjuez for the first time with the ten-string guitar in 1969 with Odón Alonso conducting the Orquesta Sinfonica R.T.V. Española...
__________________
"Comment is free, but facts are sacred" - C. P. Scott *** 40 years of the Spanish Constitution, My musical celebration

Last edited by maty tinman; Yesterday at 04:57 PM.
  Reply With Quote
Old Yesterday, 04:52 PM   #6963
maty tinman is offline maty tinman  Spain
diyAudio Member
 
maty tinman's Avatar
 
Join Date: Apr 2012
Location: Tarragona (Spain)
Uploaded the vinyl back side. You can see the famous ten-string guitar.

Click the image to open in full size.
__________________
"Comment is free, but facts are sacred" - C. P. Scott *** 40 years of the Spanish Constitution, My musical celebration
  Reply With Quote
Old Yesterday, 06:54 PM   #6964
maty tinman is offline maty tinman  Spain
diyAudio Member
 
maty tinman's Avatar
 
Join Date: Apr 2012
Location: Tarragona (Spain)
Default Sonny Rollins - Alfie (1966)

Sonny Rollins - Alfie (1966), Vinyl, stereo, Impulse!, US

Sonny Rollins - Original Music From The Score "Alfie" (Vinyl, LP, Album, Mono) | Discogs

Click the image to open in full size.

DR Peak RMS Filename
----------------------------------------------------------------------------------------------

DR12 -0.36 dB -15.47 dB A1 Alfie's Theme
DR13 -2.41 dB -19.86 dB A2 He's Younger Than You
DR13 -1.17 dB -17.26 dB B2 Transition Theme For Minor Blues Or Little Malcolm Loves His Dad
DR12 -2.90 dB -17.66 dB B3 On Impulse
DR12 -1.27 dB -16.19 dB B4 Alfie's Theme Differently
DR13 -0.32 dB -16.90 dB B1 Street Runner With Child
----------------------------------------------------------------------------------------------

Number of files: 6
Official DR value: DR13

CD, Remastered

Sonny Rollins, Oliver Nelson - Alfie - Amazon.com Music


Alfie (Sonny Rollins album - Wikipedia)
__________________
"Comment is free, but facts are sacred" - C. P. Scott *** 40 years of the Spanish Constitution, My musical celebration

Last edited by maty tinman; Yesterday at 07:05 PM.
  Reply With Quote
Old Yesterday, 07:19 PM   #6965
maty tinman is offline maty tinman  Spain
diyAudio Member
 
maty tinman's Avatar
 
Join Date: Apr 2012
Location: Tarragona (Spain)
Default Avoid the CD Remasteres (1997)

Album list - Dynamic Range Database: Sonny Rollins - Alfie

Only CD, 1987. DR12, DR12

CD Remastered is from 1997. DR10

They do not respect even one of the best soundtracks or one of the greats, Sonny Rollins

Very good sound (and music, off course) from the old stereo vinyl, it seems like new
__________________
"Comment is free, but facts are sacred" - C. P. Scott *** 40 years of the Spanish Constitution, My musical celebration

Last edited by maty tinman; Yesterday at 07:21 PM.
  Reply With Quote
Old Yesterday, 08:06 PM   #6966
maty tinman is offline maty tinman  Spain
diyAudio Member
 
maty tinman's Avatar
 
Join Date: Apr 2012
Location: Tarragona (Spain)
Default David Byrne - Rei Momo

David Byrne - Rei Momo (1989), CD, Warner, Germany

David Byrne - Rei Momo (CD, Album) | Discogs

Click the image to open in full size.

DR Peak RMS Duration Track
--------------------------------------------------------------------------------
DR13 -1.00 dB -16.47 dB 5:47 01-Independence Day (Cumbia)
DR12 -1.00 dB -15.26 dB 5:23 02-Make Believe Mambo (Orisa)
DR14 -1.00 dB -17.02 dB 4:53 03-The Call Of The Wild (Merengue)
DR13 -1.00 dB -16.33 dB 4:13 04-Dirty Old Town (Mapeyé)
DR13 -1.69 dB -16.18 dB 3:52 05-The Rose Tattoo (Bamba/Mozambique)
DR13 -1.08 dB -17.55 dB 3:46 06-Loco de Amor (Salsa/Regae)
DR14 -1.00 dB -17.02 dB 3:00 07-The Dream Police (Cha Cha Cha)
DR12 -1.00 dB -15.36 dB 4:58 08-Don't Want To Be Part Of Your World (Samba)
DR13 -1.00 dB -15.78 dB 4:31 09-Marching Through The Wilderness (Charanga)
DR11 -2.00 dB -15.07 dB 4:35 10-Good and Evil (Rumba Llesa)
DR12 -1.60 dB -15.50 dB 3:37 11-Lie To Me (Merengue)
DR13 -1.00 dB -15.58 dB 3:42 12-Office Cowboy (Pagode)
DR14 -1.00 dB -16.97 dB 4:06 13-Women Vs Men (Bolero)
DR12 -1.01 dB -15.29 dB 4:08 14-Carnival Eyes (Mapeyé)
DR12 -4.58 dB -22.72 dB 3:05 15-I Know Sometimes A Man Is Wrong
--------------------------------------------------------------------------------

Number of tracks: 15
Official DR value: DR13

David Byrne - Rei Momo - Amazon.com Music


Too bright. Better after this resampler: SSRC 16/44 Intermediate 95%

Click the image to open in full size.
__________________
"Comment is free, but facts are sacred" - C. P. Scott *** 40 years of the Spanish Constitution, My musical celebration
  Reply With Quote

Reply


Now Playing + What are you listening to?Hide this!Advertise here!
Thread Tools Search this Thread
Search this Thread:

Advanced Search

Posting Rules
You may not post new threads
You may not post replies
You may not post attachments
You may not edit your posts

BB code is On
Smilies are On
[IMG] code is On
HTML code is Off

Forum Jump

Similar Threads
Thread Thread Starter Forum Replies Last Post
Now playing… martyh Analogue Source 2 27th June 2008 03:46 PM
PLaying with ClassD again TroelsM Class D 12 20th February 2008 09:18 AM
Playing with ROMs Zero One Digital Source 0 13th May 2007 01:18 PM
what's better, a mid playing high, or a tweet playing low??? cody6766 Multi-Way 10 20th February 2005 10:40 PM
Aleph 5 playing... Lucas_G Pass Labs 72 11th April 2003 09:08 AM


New To Site? Need Help?

All times are GMT. The time now is 06:21 AM.


Search Engine Optimisation provided by DragonByte SEO (Pro) - vBulletin Mods & Addons Copyright © 2018 DragonByte Technologies Ltd.
Resources saved on this page: MySQL 15.00%
vBulletin Optimisation provided by vB Optimise (Pro) - vBulletin Mods & Addons Copyright © 2018 DragonByte Technologies Ltd.
Copyright ©1999-2018 diyAudio
Wiki