Go Back   Home > Forums > >
Home Forums Rules Articles diyAudio Store Blogs Gallery Wiki Register Donations FAQ Calendar Search Today's Posts Mark Forums Read

Music A place to discuss the thing we are doing all this other stuff for

Now Playing + What are you listening to?
Now Playing + What are you listening to?
Please consider donating to help us continue to serve you.

Ads on/off / Custom Title / More PMs / More album space / Advanced printing & mass image saving
Reply
 
Thread Tools Search this Thread
Old Yesterday, 06:32 PM   #6941
maty tinman is offline maty tinman  Spain
diyAudio Member
 
maty tinman's Avatar
 
Join Date: Apr 2012
Location: Tarragona (Spain)
Default Tom Waits - Nighthawks at the Diner

Tom Waits - Nighthawks at the Diner (1975), Vinyl, Asylum Records, US

Tom Waits - Nighthawks At The Diner (Vinyl, LP, Album) | Discogs

Click the image to open in full size.


DR Peak RMS Duration Track
--------------------------------------------------------------------------------
DR14 -1.89 dB -19.06 dB 2:58 01-(Opening Intro)
DR15 -1.64 dB -20.82 dB 3:48 02-Emotional Weather Report
DR17 -3.88 dB -24.60 dB 2:17 03-(Intro)
DR15 -1.56 dB -20.30 dB 3:49 04-On a Foggy Night
DR14 -4.68 dB -21.99 dB 1:53 05-(Intro)
DR14 -1.93 dB -18.86 dB 4:17 06-Eggs and Sausage (In a Cadillac with Susan Michelson)
DR14 -3.77 dB -22.24 dB 3:16 07-(Intro)
DR14 -3.21 dB -19.61 dB 4:00 08-Better Off Without a Wife
DR16 0.00 dB -19.58 dB 11:29 09-Nighthawk Postcards (From Easy Street)
DR14 -6.47 dB -23.69 dB 0:56 10-(Intro)
DR15 -0.66 dB -19.73 dB 5:21 11-Warm Beer and Cold Women
DR14 -6.85 dB -25.51 dB 0:48 12-(Intro)
DR14 -3.50 dB -21.23 dB 7:36 13-Putnam County
DR15 -1.18 dB -20.56 dB 6:24 14-Spare Parts I (A Nocturnal Emission)
DR14 -4.59 dB -21.60 dB 2:51 15-Nobody
DR14 -6.04 dB -26.31 dB 0:42 16-(Intro)
DR15 -3.11 dB -21.38 dB 6:29 17-Big Joe and Phantom 309
DR13 0.00 dB -17.80 dB 5:15 18-Spare Parts II and Closing
--------------------------------------------------------------------------------

Number of tracks: 18
Official DR value: DR14

CD

TOM WAITS - Nighthawks at the Diner - Amazon.com Music
__________________
"Comment is free, but facts are sacred" - C. P. Scott *** 40 years of the Spanish Constitution, My musical celebration
  Reply With Quote
Old Yesterday, 06:36 PM   #6942
WBS is offline WBS  United States
diyAudio Member
 
Join Date: Jan 2007
Location: Napa Valley
Now Playing + What are you listening to?
I just discovered Peace Orchestra from 1999.
__________________
"Why do we try to fool the ear? Because it makes people happy and it makes it easier to listen to stuff."
Nelson Pass, BAF 2012
  Reply With Quote
Old Yesterday, 07:20 PM   #6943
maty tinman is offline maty tinman  Spain
diyAudio Member
 
maty tinman's Avatar
 
Join Date: Apr 2012
Location: Tarragona (Spain)
Only I have heard the first LP but...

AWESOME, OUTSTANDING, INCREDIBLE...

The last time I heard it was before summer. The sound improvement is overwhelming. It seems that the group is in the room and TW sings to me.

Live, small group of acoustic instruments, such a particular voice and we have an explosive combination!

Off course, dark room. And many memories of the time when I discovered the singer, in the eighties, in Barcelona.

Nighthawks at the Diner - Wikipedia
__________________
"Comment is free, but facts are sacred" - C. P. Scott *** 40 years of the Spanish Constitution, My musical celebration

Last edited by maty tinman; Yesterday at 07:28 PM.
  Reply With Quote

Reply


Now Playing + What are you listening to?Hide this!Advertise here!
Thread Tools Search this Thread
Search this Thread:

Advanced Search

Posting Rules
You may not post new threads
You may not post replies
You may not post attachments
You may not edit your posts

BB code is On
Smilies are On
[IMG] code is On
HTML code is Off

Forum Jump

Similar Threads
Thread Thread Starter Forum Replies Last Post
Now playing… martyh Analogue Source 2 27th June 2008 03:46 PM
PLaying with ClassD again TroelsM Class D 12 20th February 2008 09:18 AM
Playing with ROMs Zero One Digital Source 0 13th May 2007 01:18 PM
what's better, a mid playing high, or a tweet playing low??? cody6766 Multi-Way 10 20th February 2005 10:40 PM
Aleph 5 playing... Lucas_G Pass Labs 72 11th April 2003 09:08 AM


New To Site? Need Help?

All times are GMT. The time now is 12:34 AM.


Search Engine Optimisation provided by DragonByte SEO (Pro) - vBulletin Mods & Addons Copyright © 2018 DragonByte Technologies Ltd.
Resources saved on this page: MySQL 15.00%
vBulletin Optimisation provided by vB Optimise (Pro) - vBulletin Mods & Addons Copyright © 2018 DragonByte Technologies Ltd.
Copyright ©1999-2018 diyAudio
Wiki